Welcome Guest ( Log In | Register )

> Infestus - Origen [best of/compilation] (2017), Death Metal (D)
post Jul 10 2017, 13:13:49
Post #1

Serial Uploader
Group Icon
Group: V.I.P
Posts: 37,124
Releases: 35296
From: Lithuania
On Forums: 11 years 11 months
Thanks: 419068 time(s)
Lithuania


(IMG:http://metalarea.org/images/audiocovers/2017_Jul/acov_tid291380_thumb.jpg)

*Artist: Infestus
*Album: Origen [best of/compilation]
*Year: 2017
*Genre: Death Metal
*Country: Spain (IMG:http://metalarea.org/forum/style_images/flags/Spain.png)
*Format: mp3@CBR320kbps
*Size: 126MB

Tracklist:
01. The End Of The Biosphere 01:18
02. Unnatural Legacy 04:48
03. Lusting The Fruit 04:27
04. Ancestral Cataclysm Of Life 04:36
05. Theatre Of Cruelty 03:37
06. Atmósfera De Asfixia 02:55
07. Ciudad De La Miseria 04:04
08. Interludio 01:30
09. Madera Muerta 04:07
10. Sueños De Erosión 04:35
11. El Día Después 04:25
12. Inmolación 03:57
13. La Pérdida De Los Cuerdos 00:35
14. Otros Seguirán 03:51
15. Lágrimas De Odio 00:29
16. Fauna Inerte 03:34
17. El Ocaso 00:40
18. Sombras De Genocidio 03:48
******************************
Total playing time: 57:16


(IMG:http://metalarea.org/images/youtube.png)

Extended info
Scene-rip


Technical info
(IMG:http://metalarea.org/images/spectrogram/2017_Jul/1701a7f6fdb7f96df5fa88ebe9201798.png)
Input File: 06-infestus-atmosfera_de_asfixia-bcc233cc.mp3
Channels : 2
Sample Rate : 44100
Precision : 16-bit
Duration : 00:02:55.75 = 7750355 samples = 13180.9 CDDA sectors
File Size : 7.23M
Bit Rate : 329k
Sample Encoding: MPEG audio (layer I, II or III)
Comments :
Title=Atmosfera de Asfixia
Artist=Infestus
Album=Origen
Tracknumber=6/18
Year=2017
Genre=9



Register


Go to the top of the page
  Insert nick Quick quote
+Quote Post
 
Start new topic
Replies (1 - 2)
post May 15 2020, 16:22:35
Post #2

Четыре Литра
****
Group: Металариец
Posts: 388
Releases: 2
From: Екатеринбург
On Forums: 10 years 5 months
Thanks: 97 time(s)
Russian Federation


lossless please
Go to the top of the page
  Insert nick Quick quote
+Quote Post
post May 23 2020, 07:17:34
Post #3

Group Icon
Group: S-moderation team
Posts: 15,553
Releases: 1440
From: Zagreb
On Forums: 9 years 3 months
Thanks: 69088 time(s)
Croatia


Register


Thanks:
Go to the top of the page
  Insert nick Quick quote
+Quote Post

Reply to this topicStart new topic
1 User(s) are reading this topic (1 Guests and 0 Anonymous Users)
0 Members:

 



- Lo-Fi Version Support form
Copyrights and abuse reports form
Time is now: 28th May 2020 - 14:23:44