Welcome Guest ( Log In | Register )

> Jute Gyte - Oviri (2017), Psychedelic/Experimental Black Metal (D)
post Jul 10 2017, 17:21:40
Post #1

Аннигилятор пивА
Group Icon
Group: V.I.P
Posts: 50,350
Releases: 15638
From: Koenigsberg - TILZIT
On Forums: 12 years 5 months
Thanks: 339521 time(s)
Russian Federation


(IMG:http://metalarea.org/images/audiocovers/2017_Jul/acov_tid291394_thumb.jpg)

*Artist: Jute Gyte
*Album: Oviri
*Year: 2017
*Genre: Psychedelic/Experimental Black Metal
*Country: United States (IMG:http://metalarea.org/forum/style_images/flags/United%20States.png)
*Format: mp3@CBR320kbps
*Size: 171MB

Tracklist:
1. Democritus Laughing 11:17
2. Mice Eating Gold 13:06
3. Yarinareth, Yarinareth, Yarinareth 10:54
4. Fauna of Mirrors 14:51
5. The Norms That Author the Self Render the Self Substitutable 16:29
6. Oviri 08:17
******************************
Total playing time: 1:14:54



Technical info
(IMG:http://metalarea.org/images/spectrogram/2017_Jul/4a6a67438c0e541e43c02c2e81ee22b8.png)
Input File: Jute Gyte - Oviri - 03 Yarinareth, Yarinareth, Yarinareth.mp3
Channels : 2
Sample Rate : 44100
Precision : 16-bit
Duration : 00:10:55.06 = 28887926 samples = 49129.1 CDDA sectors
File Size : 26.3M
Bit Rate : 321k
Sample Encoding: MPEG audio (layer I, II or III)
Comments :
Title=Yarinareth, Yarinareth, Yarinareth
Artist=Jute Gyte
Album=Oviri
Tracknumber=3
Year=2017



Register


Go to the top of the page
  Insert nick Quick quote
+Quote Post
 
Start new topic
Replies (1 - 2)
post Jul 10 2017, 17:37:14
Post #2

Аннигилятор пивА
Group Icon
Group: V.I.P
Posts: 50,350
Releases: 15638
From: Koenigsberg - TILZIT
On Forums: 12 years 5 months
Thanks: 339521 time(s)
Russian Federation


как всегда для искушенного авант-блэк пользователя (IMG:style_emoticons/default/crazy.gif)
Go to the top of the page
  Insert nick Quick quote
+Quote Post
post Nov 8 2018, 14:58:23    Сейчас играет: Suffering - The Eternal Dance
Post #3

antithesis
**************
Group: Металариец
Posts: 2,397
Releases: 30
From: VRN
On Forums: 8 years 5 months
Thanks: 1286 time(s)
Russian Federation


reuploaded
Register


Thanks:
Go to the top of the page
  Insert nick Quick quote
+Quote Post

Reply to this topicStart new topic
2 User(s) are reading this topic (2 Guests and 0 Anonymous Users)
0 Members:

 



- Lo-Fi Version Support form
Copyrights and abuse reports form
Time is now: 17th November 2018 - 10:26:59