Welcome Guest ( Log In | Register )

> Lust - Maldita Maldición (2016), Black/Thrash Metal
post Jul 11 2017, 06:13:14
Post #1

Аннигилятор пивА
Group Icon
Group: V.I.P
Posts: 52,360
Releases: 16550
From: Koenigsberg - TILZIT
On Forums: 13 years 11 months
Thanks: 365227 time(s)
Russian Federation


(IMG:http://metalarea.org/images/audiocovers/2017_Jul/acov_tid291408_thumb.jpg)

*Artist: Lust
*Album: Maldita Maldición
*Year: 2016
*Genre: Black/Thrash Metal
*Country: Mexico (IMG:http://metalarea.org/forum/style_images/flags/Mexico.png)
*Format: mp3@CBR320kbps
*Size: 70MB

Tracklist:
1. Plaga 03:22
2. Venganza 03:19
3. Espectro Fantasmal 03:57
4. Zona De Guerra 02:21
5. Alma De Metal 04:16
6. Ritos Nocturnos 04:43
7. Secretos En La Oscuridad 04:04
8. Maldita Maldición 03:00
******************************
Total playing time: 29:02




Extended info
Lust es una banda de Black Thrash fundada en 1997 en la Ciudad de México. Durante sus más de 15 años de presencia en la escena metalera, se ha presentado en los foros más emblemáticos del país, alternando con bandas nacionales e internacionales líderes en su género como Exodus, Kreator, Nuclear Assault, Death Angel, Revocation, Transmetal, Wehrmacht, Destruction, Venom, entre otras.

Mauricio Pérez "Chamaco" - Voz / Guitarra
Oswaldo "Oz" Blanco - Guitarra Líder
David Carrera "Gringa" - Bajo
Mitsuo Inoue "Tacho" - Batería


Technical info
(IMG:http://metalarea.org/images/spectrogram/2017_Jul/e1c3a1e9f52b0b158b61dbffcd87d6d1.png)
Input File: 4 - Zona de Guerra.mp3
Channels : 2
Sample Rate : 44100
Precision : 16-bit
Duration : 00:02:21.53 = 6241473 samples = 10614.8 CDDA sectors
File Size : 5.83M
Bit Rate : 329k
Sample Encoding: MPEG audio (layer I, II or III)
Comments :
Title=Zona de Guerra
Artist=Lust
Album=Maldita MaldiciГіn
Tracknumber=4/8
Year=2016



Register


Go to the top of the page
  Insert nick Quick quote
+Quote Post
 
Start new topic
Replies (1 - 2)
post Jul 11 2017, 08:20:06
Post #2

Аннигилятор пивА
Group Icon
Group: V.I.P
Posts: 52,360
Releases: 16550
From: Koenigsberg - TILZIT
On Forums: 13 years 11 months
Thanks: 365227 time(s)
Russian Federation


Go to the top of the page
  Insert nick Quick quote
+Quote Post
post May 22 2020, 23:53:14
Post #3

Мегаманьяк
***********
Group: Металариец
Posts: 1,644
Releases: 1
From: ecuador
On Forums: 11 years 10 months
Thanks: 1007 time(s)
Ecuador


Register
Go to the top of the page
  Insert nick Quick quote
+Quote Post

Reply to this topicStart new topic
2 User(s) are reading this topic (2 Guests and 0 Anonymous Users)
0 Members:

 



- Lo-Fi Version Support form
Copyrights and abuse reports form
Time is now: 25th May 2020 - 02:19:35