Welcome Guest ( Log In | Register )

> The Evil - The Evil (2017), Stoner/Occult/Doom Metal
post Jul 12 2017, 09:28:08
Post #1

Serpent Doom
**************
Group: Металариец
Posts: 2,128
Releases: 655
From: Moscow region
On Forums: 12 years 3 weeks
Thanks: 11811 time(s)
Russian Federation


(IMG:http://metalarea.org/images/audiocovers/2017_Jul/acov_tid291448_thumb.jpg)

*Artist: The Evil
*Album: The Evil
*Year: 2017
*Genre: Stoner/Occult/Doom Metal
*Country: Brazil (IMG:http://metalarea.org/forum/style_images/flags/Brazil.png)
*Format: mp3@CBR320kbps
*Size: 112MB

Tracklist:
1. Voices From The Deep (Intro) 00:33
2. About None Guilty 06:35
3. Screams 06:39
4. Sacrifice To The Evil One 10:26
5. Satan II 05:23
6. Silver Razor 10:19
7. The Ancients 06:14
******************************
Total playing time: 46:09



Extended info
Female vocal


Technical info
(IMG:http://metalarea.org/images/spectrogram/2017_Jul/92f0c536d7d2a1cbb5dc1d7efd446d48.png)
Input File: 05. Satan II.mp3
Channels : 2
Sample Rate : 44100
Precision : 16-bit
Duration : 00:05:23.25 = 14255149 samples = 24243.5 CDDA sectors
File Size : 13.0M
Bit Rate : 322k
Sample Encoding: MPEG audio (layer I, II or III)
Comments :
Title=Satan II
Artist=The Evil
Album=THE EVIL
Tracknumber=05
Year=2017
Genre=Metal



Register


Go to the top of the page
  Insert nick Quick quote
+Quote Post
 
Start new topic
Replies (1 - 1)
post Nov 4 2018, 01:57:49
Post #2

Шесть Литров
******
Group: Металариец
Posts: 603
Releases: 1
From: АР Крым, Симферополь
On Forums: 12 years 5 months
Thanks: 292 time(s)
Russian Federation


Отличный же материал, жирный бразильский атмосферный оккультный думец с сочным саундом, и ни одного коммента, не порядок. )))
Go to the top of the page
  Insert nick Quick quote
+Quote Post

Reply to this topicStart new topic
1 User(s) are reading this topic (1 Guests and 0 Anonymous Users)
0 Members:

 



- Lo-Fi Version Support form
Copyrights and abuse reports form
Time is now: 25th September 2020 - 04:48:44