Welcome Guest ( Log In | Register )

> Torture Squad - Far Beyond Existence (2017), Thrash/Death Metal
post Jul 12 2017, 14:09:56
Post #1

Serial Uploader
Group Icon
Group: V.I.P
Posts: 32,692
Releases: 30990
From: Lithuania
On Forums: 10 years 1 week
Thanks: 355594 time(s)
Lithuania


(IMG:https://metalarea.org/images/audiocovers/2017_Jul/acov_tid291456_thumb.jpg)

*Artist: Torture Squad
*Album: Far Beyond Existence
*Year: 2017
*Genre: Thrash/Death Metal
*Country: Brazil (IMG:https://metalarea.org/forum/style_images/flags/Brazil.png)
*Format: mp3@CBR320kbps
*Size: 145MB

Tracklist:
01. Don't Cross My Path
02. No Fate
03. Blood Sacrifice
04. Steady Hands
05. Hate (feat. Dave Ingram)
06. Hero for the Ages
07. Far Beyond Existence
08. Cursed by Disease (feat. Edu Lane)
09. You Must Proclaim (feat. Luiz Louzada)
10. Just Got Paid (feat. Alex Camargo)
11. Torture in Progress (Instrumental) (feat. Marcello Schevano)
12. Unknown Abyss (Intro)
******************************
Total playing time: 1:09:03

(IMG:https://metalarea.org/images/myspace.png)



Technical info
(IMG:https://metalarea.org/images/spectrogram/2017_Jul/5a7e0c634fa3f8bc275c811e47082f6c.png)
Input File: 02. No Fate.mp3
Channels : 2
Sample Rate : 44100
Precision : 16-bit
Duration : 00:06:35.74 = 17452266 samples = 29680.7 CDDA sectors
File Size : 15.9M
Bit Rate : 322k
Sample Encoding: MPEG audio (layer I, II or III)
Comments :
Title=No Fate
Artist=Torture Squad
Album=Far Beyond Existence
Tracknumber=2/12
Year=2017
Genre=9
Discnumber=1/1



Register


Go to the top of the page
  Insert nick Quick quote
+Quote Post
 
Start new topic
Replies (1 - 5)
post Jul 12 2017, 16:10:00
Post #2

Аннигилятор пивА
Group Icon
Group: V.I.P
Posts: 46,775
Releases: 14047
From: Koenigsberg - TILZIT
On Forums: 12 years 2 weeks
Thanks: 311781 time(s)
Russian Federation


320/144MB
Register

Как-то грувово-сыро, на отвали по моему, фиг знает че это (IMG:style_emoticons/default/crazy.gif) непонятно


Go to the top of the page
  Insert nick Quick quote
+Quote Post
post Jul 12 2017, 20:06:36
Post #3

Четыре Литра
****
Group: Металариец
Posts: 348
Releases: 0
From: Przemysl
On Forums: 3 years 5 months
Thanks: 255 time(s)
Poland


ЦИТАТА(aesteticvice @ Jul 12 2017, 16:10:00) *
Как-то грувово-сыро, на отвали по моему, фиг знает че это (IMG:style_emoticons/default/crazy.gif) непонятно


(IMG:style_emoticons/default/smile2.gif) Мдя, надеюсь, не весь материал такой...
Go to the top of the page
  Insert nick Quick quote
+Quote Post
post Jul 12 2017, 20:29:46
Post #4

И Ван Дамм По Делам Вашим!
**************
Group: Металариец
Posts: 15,709
Releases: 27
On Forums: 9 years 11 months
Thanks: 8269 time(s)
Honduras


а мне темка Cursed by Disease понравилась. Качево так.
Go to the top of the page
  Insert nick Quick quote
+Quote Post
post Jul 12 2017, 22:24:59
Post #5

_ - = # Thrashogolic # = - _ ... а давайте поржём все вместе
**************
Group: Металариец
Posts: 20,848
Releases: 4444
From: 404
On Forums: 8 years 1 day
Thanks: 27004 time(s)
Ukraine


Есть где послушать Hate c Дейвом нашим Ингремом? (IMG:style_emoticons/default/17.gif)
Не хочу качать архив...


Thanks:
(1) metalboll,
Go to the top of the page
  Insert nick Quick quote
+Quote Post
post Mar 13 2018, 22:19:06
Post #6

_ - = # Thrashogolic # = - _ ... а давайте поржём все вместе
**************
Group: Металариец
Posts: 20,848
Releases: 4444
From: 404
On Forums: 8 years 1 day
Thanks: 27004 time(s)
Ukraine


ЦИТАТА(Genuine Thrashiac @ Jul 12 2017, 23:24:59) *
Есть где послушать Hate c Дейвом нашим Ингремом? (IMG:style_emoticons/default/17.gif)
Не хочу качать архив...
Он там в припеве (или что там) с 01:22
https://youtu.be/fGk0jaAIgW8
Go to the top of the page
  Insert nick Quick quote
+Quote Post

Reply to this topicStart new topic
1 User(s) are reading this topic (1 Guests and 0 Anonymous Users)
0 Members:

 



- Lo-Fi Version Support form
Copyrights and abuse reports form
Time is now: 18th June 2018 - 10:55:23