Welcome Guest ( Log In | Register )

> Caustic - Murder The World [single] (2017), Death/Doom Metal
post Jul 15 2017, 11:04:41
Post #1

=(
Group Icon
Group: Moderation team
Posts: 6,403
Releases: 2059
On Forums: 13 years 6 months
Thanks: 64108 time(s)
Saudi Arabia


(IMG:http://metalarea.org/images/audiocovers/2017_Jul/acov_tid291583_thumb.jpg)

*Artist: Caustic
*Album: Murder The World [single]
*Year: 2017
*Genre: Death/Doom Metal
*Country: Denmark (IMG:http://metalarea.org/forum/style_images/flags/Denmark.png)
*Format: mp3@CBR320kbps
*Size: 35MB

Tracklist:
01. Murder the World 7:55
02. Liberation 6:20
******************************
Total playing time: 14:15



Technical info
(IMG:http://metalarea.org/images/spectrogram/2017_Jul/028e9c46d289c48acf6f2246243cf830.png)
Input File: 01. Murder the World.mp3
Channels : 2
Sample Rate : 44100
Precision : 16-bit
Duration : 00:07:55.45 = 20967345 samples = 35658.8 CDDA sectors
File Size : 19.2M
Bit Rate : 323k
Sample Encoding: MPEG audio (layer I, II or III)
Comments :
Title=Murder the World
Artist=Caustic
Album=Murder the World (Single)
Tracknumber=1
Year=2017
Genre=Death/Doom Metal



Register


Go to the top of the page
  Insert nick Quick quote
+Quote Post
 
Start new topic
Replies (1 - 7)
post Jul 15 2017, 11:26:50
Post #2

Аннигилятор пивА
Group Icon
Group: V.I.P
Posts: 52,360
Releases: 16551
From: Koenigsberg - TILZIT
On Forums: 13 years 9 months
Thanks: 364247 time(s)
Russian Federation


зеркало в один клик, максимум спид (IMG:style_emoticons/default/crazy.gif)
Register
Go to the top of the page
  Insert nick Quick quote
+Quote Post
post Jul 15 2017, 19:25:43
Post #3

Шесть Литров
******
Group: Металариец
Posts: 551
Releases: 0
On Forums: 10 years 9 months
Thanks: 190 time(s)
Belarus


Довольно бледная попытка скопировать Graveyard Dirt.В любом случае, - откровенно слабо.
Go to the top of the page
  Insert nick Quick quote
+Quote Post
post Jul 15 2017, 20:03:56
Post #4

####!111
**************
Group: Металариец
Posts: 3,885
Releases: 127
From: The Mountain Of DOOM
On Forums: 12 years 4 months
Thanks: 5433 time(s)
Russian Federation


охренительно! (IMG:style_emoticons/default/metaler.gif)
Go to the top of the page
  Insert nick Quick quote
+Quote Post
post Jul 15 2017, 20:53:16
Post #5

Шесть Литров
******
Group: Металариец
Posts: 521
Releases: 1
From: Кант, Кыргызстан
On Forums: 12 years 4 months
Thanks: 307 time(s)
Olympic


помню "An Integral Sense" 1991 был ничошный, а вот Timid Reality понравился.... это было самое начало 90х)) послушаю. (IMG:style_emoticons/default/bye.gif)
Go to the top of the page
  Insert nick Quick quote
+Quote Post
post Jul 15 2017, 21:32:31
Post #6

Это просто место… где все подошло к концу.
**************
Group: Металариец
Posts: 5,727
Releases: 0
From: Страны Мамонтов
On Forums: 13 years 1 week
Thanks: 2095 time(s)
Antarctica


Я хз, кто кого копирует, но материал вполне себе. Под темный Munhell Porter заходит просто норм
Go to the top of the page
  Insert nick Quick quote
+Quote Post
post Jul 16 2017, 09:05:54
Post #7

Ёлд ХеллоВяйне
Group Icon
Group: V.I.P
Posts: 28,781
Releases: 133
From: Питер
On Forums: 13 years 4 months
Thanks: 16595 time(s)
Russian Federation


QUOTE(DeathCoveR @ 15th July 2017 - 21:25:43) *
откровенно слабо

QUOTE(Un4given @ 15th July 2017 - 22:03:56) *
охренительно!


Собственно, понятно, кому верить.


Thanks:
Go to the top of the page
  Insert nick Quick quote
+Quote Post
post Jul 16 2017, 10:17:57
Post #8

Group: Подсевший
Posts: 16
Releases: 0
From: Могилев, Беларусь
On Forums: 9 years 10 months
Thanks: 5 time(s)
Belarus


ЦИТАТА(DeathCoveR @ Jul 15 2017, 19:25:43) *
Довольно бледная попытка скопировать Graveyard Dirt.В любом случае, - откровенно слабо.

НУ если учесть, что Caustic первое демо записали в 91, то речь ни о каком копировании не идет. Обе банды хороши. А сингл хорош.
Go to the top of the page
  Insert nick Quick quote
+Quote Post

Reply to this topicStart new topic
1 User(s) are reading this topic (1 Guests and 0 Anonymous Users)
0 Members:

 



- Lo-Fi Version Support form
Copyrights and abuse reports form
Time is now: 28th February 2020 - 11:31:06