Welcome Guest ( Log In | Register )

> My Purest Heart For You - Tragic End [ep] (2017), Raw Black Metal/Blackgaze
post Jul 17 2017, 16:01:54
Post #1

funeral doom fan
Group Icon
Group: S-moderation team
Posts: 4,741
Releases: 2451
From: Ростов-на-Дону
On Forums: 12 years 1 month
Thanks: 45171 time(s)
Russian Federation


(IMG:http://metalarea.org/images/audiocovers/2017_Jul/acov_tid291648_thumb.jpg)

*Artist: My Purest Heart For You
*Album: Tragic End [ep]
*Year: 2017
*Genre: Raw Black Metal/Blackgaze
*Country: United States (IMG:http://metalarea.org/forum/style_images/flags/United%20States.png)
*Format: mp3@CBR320kbps
*Size: 52MB

Tracklist:
1. Alone 05:20
2. I Don't Want to Be Here 04:27
3. Burden of Existing 02:43
4. Phantom Channel 03:32
5. Tragic End 06:04
******************************
Total playing time: 22:06



Technical info
(IMG:http://metalarea.org/images/spectrogram/2017_Jul/f7f82ce3baf41434882265568b5f1d8a.png)
Input File: 03 - Burden Of Existing.mp3
Channels : 2
Sample Rate : 44100
Precision : 16-bit
Duration : 00:02:43.57 = 7213481 samples = 12267.8 CDDA sectors
File Size : 6.58M
Bit Rate : 322k
Sample Encoding: MPEG audio (layer I, II or III)
Comments :
Title=Burden Of Existing
Artist=My Purest Heart For You
Album=Tragic End
Tracknumber=3
Year=2017



Register


Вернуться к началу страницы
  Insert nick Quick quote
+Цитировать сообщение
 
Создать новую тему
Replies (1 - 3)
post Jul 18 2017, 02:26:28
Post #2

0,5 минералки и шоколадка
**************
Group: Металариец
Posts: 2,778
Releases: 118
From: Karelia/SPB
On Forums: 8 years 9 months
Thanks: 3684 time(s)
NATO


пардон, давно не был на форуме, Blackgaze - это типа нечто среднее между black и shoegaze?
Вернуться к началу страницы
  Insert nick Quick quote
+Цитировать сообщение
post Jul 18 2017, 09:04:52
Post #3

funeral doom fan
Group Icon
Group: S-moderation team
Posts: 4,741
Releases: 2451
From: Ростов-на-Дону
On Forums: 12 years 1 month
Thanks: 45171 time(s)
Russian Federation


shial, типа того. Только этот проект не самый типичный представитель.
Вернуться к началу страницы
  Insert nick Quick quote
+Цитировать сообщение
post Nov 14 2017, 15:43:28
Post #4

赑屃
**
Group: Завсегдатай
Posts: 169
Releases: 5
From: Луганск
On Forums: 10 months 3 weeks
Thanks: 86 time(s)
Russian Federation


Переборщили с уровнем записи.. Аж хрюкает.. Блэкгейзовый дабстеп, блин.. Лютая срань, как по мне.. Искусственно засыренная бяка, вызывающая головную боль при прослушке.
Вернуться к началу страницы
  Insert nick Quick quote
+Цитировать сообщение

ОтветитьСоздать новую тему
2 User(s) are reading this topic (2 Guests and 0 Anonymous Users)
0 Members:

 



- Lo-Fi Version Support form
Copyrights and abuse reports form
Time is now: 24th February 2018 - 11:12:12