Welcome Guest ( Log In | Register )

> Black Path - Final Act: Martyr (2017), Death Metal
post Jul 18 2017, 11:36:12
Post #1

Девять Литров
*********
Group: Металариец
Posts: 960
Releases: 804
From: Новороссийск
On Forums: 8 years 2 months
Thanks: 14045 time(s)
Russian Federation


(IMG:https://metalarea.org/images/audiocovers/2017_Jul/acov_tid291680_thumb.jpg)

*Artist: Black Path
*Album: Final Act: Martyr
*Year: 2017
*Genre: Death Metal
*Country: Greece (IMG:https://metalarea.org/forum/style_images/flags/Greece.png)
*Format: mp3@CBR320kbps
*Size: 104MB

Tracklist:
01. Intro 00:15
02. My Exile 05:04
03. Blackened Requiem 03:52
04. The God Who Lied 05:05
05. Your Demise 05:51
06. Frontline Of Dusk 04:21
07. Martyr 00:37
08. Definitely Obsessed 04:56
09. The Spine Melody 03:26
10. Dethrone 03:38
11. March Of Silence 08:30
******************************
Total playing time: 45:38




Extended info
C элементами Technical/Melodic Death Metal


Technical info
(IMG:https://metalarea.org/images/spectrogram/2017_Jul/168dd680d1051ae35d49939aab3ce856.png)
Input File: 02. My Exile.mp3
Channels : 2
Sample Rate : 44100
Precision : 16-bit
Duration : 00:05:04.07 = 13409487 samples = 22805.2 CDDA sectors
File Size : 12.2M
Bit Rate : 320k
Sample Encoding: MPEG audio (layer I, II or III)
Comments :
Title=My Exile
Artist=Black Path
Album=Final Act: Martyr
Tracknumber=02
Year=2017
Genre=Death Metal



Register


Go to the top of the page
  Insert nick Quick quote
+Quote Post
 
Start new topic
Replies (1 - 7)
post Jul 18 2017, 13:27:39
Post #2

Два Литра
**
Group: Завсегдатай
Posts: 182
Releases: 0
On Forums: 5 years 4 months
Thanks: 57 time(s)
Unknown


Mirror please?

Thanks for the mirror..sampo is (IMG:style_emoticons/default/22.gif)
Go to the top of the page
  Insert nick Quick quote
+Quote Post
post Jul 18 2017, 14:10:39
Post #3

Morbid Angel
**************
Group: Металариец
Posts: 4,166
Releases: 0
From: Литва г.Клайпеда
On Forums: 12 years 4 months
Thanks: 1773 time(s)
Lithuania





Thanks:
(1) slack,
Go to the top of the page
  Insert nick Quick quote
+Quote Post
post Jul 18 2017, 15:14:16
Post #4

Join my religion, or die
**************
Group: Металариец
Posts: 10,324
Releases: 1434
From: Питера
On Forums: 9 years 9 months
Thanks: 18163 time(s)
Russian Federation


Мне превьюшка понравилась.
Если весь альбом такой - однозначно надо слушать.
Go to the top of the page
  Insert nick Quick quote
+Quote Post
post Jul 18 2017, 15:19:07
Post #5

Аннигилятор пивА
Group Icon
Group: V.I.P
Posts: 52,356
Releases: 16556
From: Koenigsberg - TILZIT
On Forums: 13 years 1 month
Thanks: 361407 time(s)
Russian Federation


320/91MB
Register


Go to the top of the page
  Insert nick Quick quote
+Quote Post
post Jul 18 2017, 18:57:35
Post #6

Пять Литров
*****
Group: Металариец
Posts: 462
Releases: 0
From: Град Московский
On Forums: 11 years 6 months
Thanks: 109 time(s)
Russian Federation


Супер мелодик дэт!!!
Go to the top of the page
  Insert nick Quick quote
+Quote Post
post Jul 19 2017, 08:50:06
Post #7

Три Литра
***
Group: Завсегдатай
Posts: 202
Releases: 5
On Forums: 3 years 1 month
Thanks: 96 time(s)
Russian Federation


ЦИТАТА
C элементами Technical/Melodic Death Metal

Просьба это и писать в жанре.
Go to the top of the page
  Insert nick Quick quote
+Quote Post
post Feb 16 2018, 17:03:05
Post #8

Пять Литров
*****
Group: Металариец
Posts: 412
Releases: 0
On Forums: 2 years 11 months
Thanks: 29 time(s)
Unknown


This Death Metal is too modern.
Go to the top of the page
  Insert nick Quick quote
+Quote Post

Reply to this topicStart new topic
2 User(s) are reading this topic (2 Guests and 0 Anonymous Users)
0 Members:

 



- Lo-Fi Version Support form
Copyrights and abuse reports form
Time is now: 18th July 2019 - 05:30:24