Welcome Guest ( Log In | Register )

> God Of Lies - Merciless Destiny (2017), Old School Thrash Metal
post Jul 18 2017, 14:47:54
Post #1

Аннигилятор пивА
Group Icon
Group: V.I.P
Posts: 50,805
Releases: 15843
From: Koenigsberg - TILZIT
On Forums: 12 years 6 months
Thanks: 345272 time(s)
Russian Federation


(IMG:https://metalarea.org/images/audiocovers/2017_Jul/acov_tid291691_thumb.jpg)

*Artist: God Of Lies
*Album: Merciless Destiny
*Year: 2017
*Genre: Old School Thrash Metal
*Country: Colombia (IMG:https://metalarea.org/forum/style_images/flags/Colombia.png)
*Format: mp3@CBR320kbps
*Size: 91MB

Tracklist:
1. Merciless Destiny
2. He Controls The World
3. Insane
4. Thrash Metal Commander In Chief
5. Children Of War
6. The Final Attack
7. Beyond The Death
8. Deepest Darkness
9. Desolation
******************************
Total playing time: 39:07



Extended info
кодек Gogo
Слегка придэтованно, не во вред
JAIDER MEJIA LEAD VOCALS- GUITARS -
JUAN PABLO ARROYAVE - GUITARS BACKING VOCALS
JOHN VILLEGAS - BASS- BACKING VOCALS
JORGE CEBALLOS - DRUMS



Technical info
(IMG:https://metalarea.org/images/spectrogram/2017_Jul/d153b2c22b5b86b8aaabd1b34f3f9268.png)
Input File: 4 - Thrash Metal Commander in Chief.mp3
Channels : 2
Sample Rate : 44100
Precision : 16-bit
Duration : 00:03:29.02 = 9217650 samples = 15676.3 CDDA sectors
File Size : 8.53M
Bit Rate : 326k
Sample Encoding: MPEG audio (layer I, II or III)
Comments :
Title=Thrash Metal Commander in Chief
Artist=GOD OF LIES
Album=Merciless Destiny
Tracknumber=4/9
Year=2017



Register


Go to the top of the page
  Insert nick Quick quote
+Quote Post
 
Start new topic
Replies (1 - 5)
post Jul 18 2017, 20:11:31
Post #2

MDM-Thrash Metal
**************
Group: Металариец
Posts: 7,297
Releases: 423
From: Одесса
On Forums: 11 years 4 months
Thanks: 13880 time(s)
Ukraine


Очень даже неплохо! (IMG:style_emoticons/default/20.gif)
https://www.youtube.com/watch?v=BZ0nS5MvHe8
https://www.youtube.com/watch?v=P2A2tdaofW8
Go to the top of the page
  Insert nick Quick quote
+Quote Post
post Jul 19 2017, 13:20:58
Post #3

Аполітичний
**************
Group: Металариец
Posts: 5,304
Releases: 143
From: Тимчасово окупована територія - Юзівка
On Forums: 10 years 3 months
Thanks: 5499 time(s)
Ukraine


ЦИТАТА(aesteticvice @ Jul 18 2017, 16:47:54) *
Слегка придэтованно


Довольно мягко сказано (IMG:style_emoticons/default/1488.gif)
Материал силен.
Go to the top of the page
  Insert nick Quick quote
+Quote Post
post Feb 14 2018, 19:39:23
Post #4

brutalcesar
**************
Group: Металариец
Posts: 17,597
Releases: 67
From: Рязань
On Forums: 9 years 10 months
Thanks: 8904 time(s)
Russian Federation


Register


Thanks:
Go to the top of the page
  Insert nick Quick quote
+Quote Post
post Aug 10 2018, 09:38:05
Post #5

MDM-Thrash Metal
**************
Group: Металариец
Posts: 7,297
Releases: 423
From: Одесса
On Forums: 11 years 4 months
Thanks: 13880 time(s)
Ukraine


...Подзабыл сей релиз и, благодаря голосовалке за лучший треш альбом 2017 года, составляя список, вспомнил за работу колумбийцев и тут же на прослушку. Очень добротный опус, все сделано в рамках стиля и вокал четко вписывается в муз составляющую, короче говоря, грамотная и толковая работа! (IMG:style_emoticons/default/metaler.gif)


Thanks:
Go to the top of the page
  Insert nick Quick quote
+Quote Post
post Aug 28 2018, 20:26:10
Post #6

MDM-Thrash Metal
**************
Group: Металариец
Posts: 7,297
Releases: 423
From: Одесса
On Forums: 11 years 4 months
Thanks: 13880 time(s)
Ukraine


Весчь! (IMG:style_emoticons/default/metaler.gif)

Register


Thanks:
(1) wgs73,
Go to the top of the page
  Insert nick Quick quote
+Quote Post

Reply to this topicStart new topic
1 User(s) are reading this topic (1 Guests and 0 Anonymous Users)
0 Members:

 



- Lo-Fi Version Support form
Copyrights and abuse reports form
Time is now: 13th December 2018 - 14:21:02