Welcome Guest ( Log In | Register )

> God Of Lies - Merciless Destiny (2017), Old School Thrash Metal
post Jul 18 2017, 14:47:54
Post #1

Аннигилятор пивА
Group Icon
Group: V.I.P
Posts: 45,737
Releases: 13652
From: Koenigsberg - TILZIT
On Forums: 11 years 8 months
Thanks: 302149 time(s)
Russian Federation


(IMG:https://metalarea.org/images/audiocovers/2017_Jul/acov_tid291691_thumb.jpg)

*Artist: God Of Lies
*Album: Merciless Destiny
*Year: 2017
*Genre: Old School Thrash Metal
*Country: Colombia (IMG:https://metalarea.org/forum/style_images/flags/Colombia.png)
*Format: mp3@CBR320kbps
*Size: 91MB

Tracklist:
1. Merciless Destiny
2. He Controls The World
3. Insane
4. Thrash Metal Commander In Chief
5. Children Of War
6. The Final Attack
7. Beyond The Death
8. Deepest Darkness
9. Desolation
******************************
Total playing time: 39:07



Extended info
кодек Gogo
Слегка придэтованно, не во вред
JAIDER MEJIA LEAD VOCALS- GUITARS -
JUAN PABLO ARROYAVE - GUITARS BACKING VOCALS
JOHN VILLEGAS - BASS- BACKING VOCALS
JORGE CEBALLOS - DRUMS



Technical info
(IMG:https://metalarea.org/images/spectrogram/2017_Jul/d153b2c22b5b86b8aaabd1b34f3f9268.png)
Input File: 4 - Thrash Metal Commander in Chief.mp3
Channels : 2
Sample Rate : 44100
Precision : 16-bit
Duration : 00:03:29.02 = 9217650 samples = 15676.3 CDDA sectors
File Size : 8.53M
Bit Rate : 326k
Sample Encoding: MPEG audio (layer I, II or III)
Comments :
Title=Thrash Metal Commander in Chief
Artist=GOD OF LIES
Album=Merciless Destiny
Tracknumber=4/9
Year=2017



Register


Вернуться к началу страницы
  Insert nick Quick quote
+Цитировать сообщение
 
Создать новую тему
Replies (1 - 3)
post Jul 18 2017, 20:11:31
Post #2

MDM-Thrash Metal
**************
Group: Металариец
Posts: 6,165
Releases: 401
From: Одесса
On Forums: 10 years 6 months
Thanks: 11708 time(s)
Ukraine


Очень даже неплохо! (IMG:style_emoticons/default/20.gif)
https://www.youtube.com/watch?v=BZ0nS5MvHe8
https://www.youtube.com/watch?v=P2A2tdaofW8
Вернуться к началу страницы
  Insert nick Quick quote
+Цитировать сообщение
post Jul 19 2017, 13:20:58
Post #3

Аполітичний
**************
Group: Металариец
Posts: 4,953
Releases: 143
From: Тимчасово окупована територія - Юзівка
On Forums: 9 years 6 months
Thanks: 5177 time(s)
Ukraine


ЦИТАТА(aesteticvice @ Jul 18 2017, 16:47:54) *
Слегка придэтованно


Довольно мягко сказано (IMG:style_emoticons/default/1488.gif)
Материал силен.
Вернуться к началу страницы
  Insert nick Quick quote
+Цитировать сообщение
post Feb 14 2018, 19:39:23
Post #4

brutalcesar
**************
Group: Металариец
Posts: 17,343
Releases: 67
From: Рязань
On Forums: 9 years 1 month
Thanks: 8510 time(s)
Russian Federation


Register


Thanks:
(1) DarkHorde,
Вернуться к началу страницы
  Insert nick Quick quote
+Цитировать сообщение

ОтветитьСоздать новую тему
1 User(s) are reading this topic (1 Guests and 0 Anonymous Users)
0 Members:

 



- Lo-Fi Version Support form
Copyrights and abuse reports form
Time is now: 20th February 2018 - 14:15:39