Welcome Guest ( Log In | Register )

> Temple Of Void - Lords Of Death (2017), Death/Doom Metal
post Jul 25 2017, 12:37:56
Post #1

Serial Uploader
Group Icon
Group: V.I.P
Posts: 36,878
Releases: 35064
From: Lithuania
On Forums: 11 years 7 months
Thanks: 412163 time(s)
Lithuania


(IMG:http://metalarea.org/images/audiocovers/2017_Jul/acov_tid291970_thumb.jpg)

*Artist: Temple Of Void
*Album: Lords Of Death
*Year: 2017
*Genre: Death/Doom Metal
*Country: United States (IMG:http://metalarea.org/forum/style_images/flags/United%20States.png)
*Format: mp3@CBR320kbps
*Size: 102MB

Tracklist:
01. The Charnel Unearthing 01:40
02. Wretched Banquet 06:39
03. A Watery Internment 05:49
04. The Hidden Fiend 04:30
05. An Ominous Journey 00:33
06. The Gift 04:04
07. Graven Desires 06:52
08. Deceiver In The Shadows 06:44
******************************
Total playing time: 36:51



(IMG:http://metalarea.org/images/youtube.png)


Technical info
(IMG:http://metalarea.org/images/spectrogram/2017_Jul/b4ceee030fd7d3730387d08976f651b3.png)
Input File: 02. Wretched Banquet.mp3
Channels : 2
Sample Rate : 44100
Precision : 16-bit
Duration : 00:06:39.42 = 17614554 samples = 29956.7 CDDA sectors
File Size : 16.1M
Bit Rate : 323k
Sample Encoding: MPEG audio (layer I, II or III)
Comments :
Title=Wretched Banquet
Artist=Temple Of Void
Album=Lords of Death
Tracknumber=2
Year=2017



Register

Register


Go to the top of the page
  Insert nick Quick quote
+Quote Post
 
Start new topic
Replies (1 - 11)
post Jul 25 2017, 12:47:54
Post #2

\m/
Group Icon
Group: S-moderation team
Posts: 7,735
Releases: 19
From: Петропавловск-Камчатский
On Forums: 10 years 7 months
Thanks: 7381 time(s)
Russian Federation


Added links by Samaritianin
Go to the top of the page
  Insert nick Quick quote
+Quote Post
post Jul 25 2017, 12:49:36
Post #3

Правь статус, ####!111
**************
Group: Металариец
Posts: 20,348
Releases: 13874
From: Г.Харьков
On Forums: 7 years 8 months
Thanks: 243395 time(s)
Unknown


Register


Go to the top of the page
  Insert nick Quick quote
+Quote Post
post Jul 25 2017, 22:15:13
Post #4

Шесть Литров
******
Group: Металариец
Posts: 551
Releases: 0
On Forums: 10 years 8 months
Thanks: 190 time(s)
Belarus


Очередное безликое долбилово.
Go to the top of the page
  Insert nick Quick quote
+Quote Post
post Jul 26 2017, 00:34:38
Post #5

Самый Тихий Час
**************
Group: Металариец
Posts: 5,862
Releases: 2
On Forums: 10 years 2 months
Thanks: 2672 time(s)
Unknown


дэта вроде больше. любителям Coffins попрет.
Go to the top of the page
  Insert nick Quick quote
+Quote Post
post Jul 26 2017, 18:51:44
Post #6

MélöManiäc
*****
Group: Металариец
Posts: 468
Releases: 37
From: КубанЬ
On Forums: 11 years 3 weeks
Thanks: 830 time(s)
Russian Federation


Мне нравятся Coffins.
Temple of Void тоже зацепили. Хотя по музации у них очень мало общего.
Сабж таки больше ДУМ.
Go to the top of the page
  Insert nick Quick quote
+Quote Post
post Jul 26 2017, 19:04:23
Post #7

ΕΥΜΕΝΙΔΕΣ
**************
Group: Металариец
Posts: 2,231
Releases: 26
From: Kænugarður
On Forums: 12 years 11 months
Thanks: 3006 time(s)
Ukraine


(IMG:style_emoticons/default/spitggis0.gif)
Go to the top of the page
  Insert nick Quick quote
+Quote Post
post Jul 26 2017, 19:54:12
Post #8

Правь статус, ####!111
**************
Group: Металариец
Posts: 4,444
Releases: 0
From: Одесса
On Forums: 11 years 10 months
Thanks: 2873 time(s)
Unknown


QUOTE(DeathCoveR @ Jul 25 2017, 23:15:13) *
Очередное безликое долбилово.

Speak about yourself. (IMG:style_emoticons/default/1488.gif)


Thanks:
(1) SAPOGi,
Go to the top of the page
  Insert nick Quick quote
+Quote Post
post Sep 26 2017, 07:18:13
Post #9

Crush! Kill! Destroy!
**************
Group: Металариец
Posts: 5,235
Releases: 15
From: Kaliningrad
On Forums: 12 years 2 months
Thanks: 4817 time(s)
Russian Federation


Жырнота!
Go to the top of the page
  Insert nick Quick quote
+Quote Post
post Sep 27 2018, 12:52:17
Post #10

aggresive exumator!
*********
Group: Металариец
Posts: 969
Releases: 0
On Forums: 8 years 4 months
Thanks: 38 time(s)
Unknown


reupload please
Go to the top of the page
  Insert nick Quick quote
+Quote Post
post Jan 8 2019, 20:10:35
Post #11

Восемь Литров
********
Group: Металариец
Posts: 826
Releases: 0
On Forums: 10 years 10 months
Thanks: 8 time(s)
Netherlands


Anybody got a working link, please?
Go to the top of the page
  Insert nick Quick quote
+Quote Post
post Jan 9 2019, 20:42:23
Post #12

Going home. Flying high.
**************
Group: Металариец
Posts: 12,966
Releases: 0
From: The Land of Shadows
On Forums: 13 years 5 months
Thanks: 22574 time(s)
Russian Federation


from web
Register


Go to the top of the page
  Insert nick Quick quote
+Quote Post

Reply to this topicStart new topic
1 User(s) are reading this topic (1 Guests and 0 Anonymous Users)
0 Members:

 



- Lo-Fi Version Support form
Copyrights and abuse reports form
Time is now: 28th January 2020 - 20:11:27