Welcome Guest ( Log In | Register )

> Bowel Fuck - Fragments (2017), Death Metal/Grindcore
post Jul 26 2017, 10:46:07
Post #1

Аннигилятор пивА
Group Icon
Group: V.I.P
Posts: 46,692
Releases: 14016
From: Koenigsberg - TILZIT
On Forums: 11 years 11 months
Thanks: 310870 time(s)
Russian Federation


(IMG:http://metalarea.org/images/audiocovers/2017_Jul/acov_tid292005_thumb.png)

*Artist: Bowel Fuck
*Album: Fragments
*Year: 2017
*Genre: Death Metal/Grindcore
*Country: Czech Republic (IMG:http://metalarea.org/forum/style_images/flags/Czech%20Republic.png)
*Format: mp3@CBR320kbps
*Size: 66MB

Tracklist:
01. Why 01:39
02. War Inside 01:34
03. Casket 01:34
04. Strict 01:28
05. Thread 01:51
06. I'm Not 01:33
07. Explosion 00:26
08. Better 01:48
09. Fragments 00:52
10. Trapped 01:57
11. Wasteland 01:54
12. Redemption 02:02
13. Illusion 00:54
14. Now Is the Time 01:52
15. I'm Stuck 01:46
16. Two Fields - Three Days 02:25
******************************
Total playing time: 25:35




Extended info
Grind band from Praha, Czech-Republic, since 2010. This is their killer second full length album. Note that their debut was goregrind-ish, while in this release their style is closer to grindcore (with black/death miasm).

John - Bass, Vocals (2010-present) See also: Destructive Explosion of Anal Garland, Pisstolero
Kalvos - Drums (2010-present) See also: Decomposing Manure, Intestacy
Pavel - Guitars, Vocals (2010-present) See also: Choked by Own Vomits, ex-Destructive Explosion of Anal Garland


Technical info
(IMG:http://metalarea.org/images/spectrogram/2017_Jul/14ca8e1ead31f863e568f98e0890e15e.png)
Input File: 06 I'm not.mp3
Channels : 2
Sample Rate : 44100
Precision : 16-bit
Duration : 00:01:33.69 = 4131597 samples = 7026.53 CDDA sectors
File Size : 4.19M
Bit Rate : 358k
Sample Encoding: MPEG audio (layer I, II or III)
Comments :
Title=I'm not
Artist=BOWEL FUCK
Album=Fragments
Tracknumber=6
Year=2017
Genre=Metal



Register


Вернуться к началу страницы
  Insert nick Quick quote
+Цитировать сообщение
 
Создать новую тему
Replies (1 - 2)
post Jul 26 2017, 11:42:13
Post #2

Шесть Литров
******
Group: Металариец
Posts: 570
Releases: 9
From: Беларусь
On Forums: 10 years 11 months
Thanks: 232 time(s)
Belarus


что-то чехи от гора отходить стали, выросли типа
Вернуться к началу страницы
  Insert nick Quick quote
+Цитировать сообщение
post Dec 7 2017, 16:35:38
Post #3

Попсовик от брутала
**************
Group: Металариец
Posts: 5,884
Releases: 56
From: Минск
On Forums: 9 years 5 months
Thanks: 4730 time(s)
Belarus


Перезалейте
Вернуться к началу страницы
  Insert nick Quick quote
+Цитировать сообщение

ОтветитьСоздать новую тему
1 User(s) are reading this topic (1 Guests and 0 Anonymous Users)
0 Members:

 



- Lo-Fi Version Support form
Copyrights and abuse reports form
Time is now: 24th May 2018 - 01:16:59