Welcome Guest ( Log In | Register )

> И неформату есть предел.

Рэп/хип-хоп/шансон/поп удаляются. Для них есть свои порталы.

 
Reply to this topicStart new topic
> MØHR & Maeror Tri - Hafenstadt [split] (2015), Experimental/Industrial | Industrial/Drone (D31)
post Jul 30 2017, 06:19:30
Post #1

0,5 минералки и шоколадка
**************
Group: Металариец
Posts: 2,817
Releases: 119
From: Karelia
On Forums: 11 years 1 month
Thanks: 3862 time(s)
NATO


(IMG:http://metalarea.org/images/audiocovers/2017_Jul/acov_tid292254_thumb.jpg)

*Artist: MØHR & Maeror Tri
*Album: Hafenstadt [split]
*Year: 2015
*Genre: Experimental/Industrial | Industrial/Drone
*Country: Germany (IMG:http://metalarea.org/forum/style_images/flags/Germany.png) | Germany (IMG:http://metalarea.org/forum/style_images/flags/Germany.png)
*Format: mp3@CBR320kbps
*Size: 128MB

Tracklist:
1. MØHR - Hafenstadt (28:32)
2. Maeror Tri - Amnis (10:12)
3. Maeror Tri - Tidal Waves Of Oblivion (8:43)
4. Maeror Tri - Hypnotic Quakes (8:54)
******************************
Total playing time: 56:21

Extended info
The MØHR basic tape was recorded at Gewalt am Objekt studio between 1986 and 1988, arranged in 1991 for Maeror Tri by Andreaz Vogel. Digitally remastered in 2007. Maeror Tri only used the basic sounds of MØHR's Hafenstadt. Everything recorded October 1991-September 1992 by Maeror Tri. Many thanks to Andreaz!

Этот материал изначально должен был войти в трилогию кассет в серии интерпретаций музыки MØHR на лейбле ZNS TAPES. В этой серии разные музыканты получали индивидуальные 30-минутные базовые композиции MØHR и интерпретировали их любым образом: используя в качестве фона и добавляя свои дорожки, вдохновляясь и записывая что-то своё в духе исходного материала, деконструируя и собирая заново. У всех приглашённых артистов была возможность переработать исходный материал. Для смого релиза основной материал помещался на сторону А, а интерпретация - на сторону B, что позволяло слушателю сравнить изначальный и конечный звук. Три кассеты составляли один бокс, объединённый свободной темой. Первый бокс, "Bürokratie", содержал работы DAS KONZENTRAT, BESTATTUNGSINSTITUT и SUICIDE COMMANDO (вышел в 1990 г.), второй, "Kulturschock", содержал работы ANDREW CHALK/DARREN TATE, ECTOPLASMIC EMBRYO EXPERIENCE и FLAGRANTs D’ELI (вышел в 1991 г.). В третий должы были войти "Hafenstadt" от MAEROR TRI, а также материалы от PBK и THE HATERS, но он так и не вышел из-за скоропостижного конца лейбла ZNS TAPES. Мы уверены, что это сочетание изначального материала и его музыкальной переработки звучит интересно, может быть, даже особенно интересно после более чем 20-летнего пребывания в архивах. [Andreaz Vogel]

This music was originally planned to form a part of the third tape box in the MØHR interpretation series of ZNS TAPES. In this series different artists got an individual 30-minutes-piece of basic material by MØHR to be interpreted it in any way: Using it as a backing tape and adding some more tracks, getting inspired and doing something unique in the spirit of the basic material, deconstruct and arrange it anew. The invited artists had any opportunity to re-work the source material. For the actual release the basic material was placed on side A and the interpretation on side B, enabling the listener to compare the basic and the final sound. Three tapes were compiled as one tape box linked by a loose theme. The first box, Bürokratie, contained works by DAS KONZENTRAT, BESTATTUNGSINSTITUT and SUICIDE COMMANDO (released in 1990), the second, Kulturschock, contained works by ANDREW CHALK/DARREN TATE, ECTOPLASMIC EMBRYO EXPERIENCE and FLAGRANTs D’ELI (released in 1991). The third one, which was to contain Hafenstadt by MAEROR TRI (as well as material of PBK and THE HATERS), has never been released due to the sudden end of ZNS TAPES. We’re convinced that this combination of basic stuff plus musical reworking is still an interesting and exciting experience for the audience, maybe especially after more than 20 years in the archives. [Andreaz Vogel]


Technical info
(IMG:http://metalarea.org/images/spectrogram/2017_Jul/ee865ba2a54fb396546cbf95e9700a1b.png)
Input File: 04. Maeror Tri - Hypnotic Quakes.mp3
Channels : 2
Sample Rate : 44100
Precision : 16-bit
Duration : 00:08:54.78 = 23583754 samples = 40108.4 CDDA sectors
File Size : 21.6M
Bit Rate : 323k
Sample Encoding: MPEG audio (layer I, II or III)
Comments :
Title=Hypnotic Quakes
Artist=Maeror Tri
Album=Hafenstadt
Tracknumber=04/04
Year=2015
Genre=Dark Ambient/Experimental/Industrial
Discnumber=1



Register


Go to the top of the page
  Insert nick Quick quote
+Quote Post

Reply to this topicStart new topic
1 User(s) are reading this topic (1 Guests and 0 Anonymous Users)
0 Members:

 



- Lo-Fi Version Support form
Copyrights and abuse reports form
Time is now: 5th July 2020 - 11:17:28