Welcome Guest ( Log In | Register )

> Hypertension - Distant Thunders Call (2014), Old School Blackened Thrash/Speed Metal
post Jul 30 2017, 08:08:57
Post #1

Правь статус, ####!111
**************
Group: Металариец
Posts: 13,646
Releases: 9562
From: Г.Харьков
On Forums: 6 years 2 months
Thanks: 156852 time(s)
Unknown


(IMG:https://metalarea.org/images/audiocovers/2017_Jul/acov_tid292256_thumb.jpg)

*Artist: Hypertension
*Album: Distant Thunders Call
*Year: 2014
*Genre: Old School Blackened Thrash/Speed Metal
*Country: Sweden (IMG:https://metalarea.org/forum/style_images/flags/Sweden.png)
*Format: mp3@CBR320kbps
*Size: 77MB

Tracklist:
1. Venturous We Are 04:16
2. Creation Dies 03:02
3. Nightlife Survival 03:24
4. The Tension Rises 03:29
5. Salvation Of Steel 03:17
6. Ferocious Oppressors Forgotten 06:03
7. Distant Thunders Call 03:24
8. Cross Of Time 04:59
******************************
Total playing time: 31:54





Extended info
CD-Rip+Scans



Technical info
(IMG:https://metalarea.org/images/spectrogram/2017_Jul/1955495c3396598c21ebb2dbdd493b5d.png)
Input File: 02. Creation Dies.mp3
Channels : 2
Sample Rate : 44100
Precision : 16-bit
Duration : 00:03:02.09 = 8030169 samples = 13656.8 CDDA sectors
File Size : 7.38M
Bit Rate : 324k
Sample Encoding: MPEG audio (layer I, II or III)
Comments :
Title=Creation Dies
Artist=Hypertension
Album=Distant Thunders Call
Tracknumber=02
Year=2014
Genre=Thrash Metal



Register


Go to the top of the page
  Insert nick Quick quote
+Quote Post
 
Start new topic
Replies (1 - 2)
post Jul 30 2017, 11:37:06
Post #2

\m/
Group Icon
Group: S-moderation team
Posts: 7,433
Releases: 19
From: Петропавловск-Камчатский
On Forums: 9 years 1 month
Thanks: 6675 time(s)
Russian Federation


Здорово, энергично, то что надо! (IMG:style_emoticons/default/metaler.gif)


Thanks:
(2) smes, Storky,
Go to the top of the page
  Insert nick Quick quote
+Quote Post
post Jul 12 2018, 16:33:38
Post #3

Правь статус, ####!111
**************
Group: Металариец
Posts: 2,864
Releases: 1
From: Рейх
On Forums: 11 years 10 months
Thanks: 779 time(s)
Ukraine


Угарный спид треш и даже скрипка есть с соляком в Ferocious Oppressors Forgotten


Thanks:
Go to the top of the page
  Insert nick Quick quote
+Quote Post

Reply to this topicStart new topic
2 User(s) are reading this topic (2 Guests and 0 Anonymous Users)
0 Members:

 



- Lo-Fi Version Support form
Copyrights and abuse reports form
Time is now: 17th July 2018 - 18:09:11