Welcome Guest ( Log In | Register )

> Worm - Nights In Hell [demo] (2016), Raw Black Metal
post Aug 4 2017, 17:49:21
Post #1

Маньяк
**********
Group: Металариец
Posts: 1,263
Releases: 970
From: Prešov
On Forums: 4 years 2 months
Thanks: 22604 time(s)
Slovakia


(IMG:http://metalarea.org/images/audiocovers/2017_Aug/acov_tid292564_thumb.jpg)

*Artist: Worm
*Album: Nights In Hell [demo]
*Year: 2016
*Genre: Raw Black Metal
*Country: United States (IMG:http://metalarea.org/forum/style_images/flags/United%20States.png)
*Format: mp3@CBR320kbps
*Size: 137MB

Tracklist:
1. Another Night in Hell
2. Dark Prophecy Awaits
3. Phantom Blood
4. Frost Coffin
5. Hell Knight
6. Shadow Self
7. The Crypt Beneath the Swamp
8. Holy Forsaker
9. Earth Bites Back
10. Unholy Crusade
11. The Witches Falcon
12. Throne of the Wicked
13. The Haunting Beneath the Firs
******************************
Total playing time: 58:21

Extended info
Tape-rip
KVLT!


Technical info
(IMG:http://metalarea.org/images/spectrogram/2017_Aug/1f48058183bed5a4ecf9b0248d4eb04f.png)
Input File: A2. Dark Prophecy Awaits.mp3
Channels : 2
Sample Rate : 44100
Precision : 16-bit
Duration : 00:04:17.59 = 11359895 samples = 19319.5 CDDA sectors
File Size : 10.5M
Bit Rate : 327k
Sample Encoding: MPEG audio (layer I, II or III)
Comments :
Title=Dark Prophecy Awaits
Artist=Worm
Album=Nights In Hell
Tracknumber=02/13
Year=2016
Genre=Black Metal



Register


Go to the top of the page
  Insert nick Quick quote
+Quote Post
 
Start new topic
Replies (1 - 3)
post Aug 4 2017, 22:37:19
Post #2

Семь Литров
*******
Group: Металариец
Posts: 781
Releases: 164
On Forums: 7 years 8 months
Thanks: 1965 time(s)
Albania


(IMG:style_emoticons/default/20.gif) (IMG:style_emoticons/default/20.gif) (IMG:style_emoticons/default/20.gif) (IMG:style_emoticons/default/20.gif) (IMG:style_emoticons/default/20.gif)


Thanks:
Go to the top of the page
  Insert nick Quick quote
+Quote Post
post Oct 12 2017, 13:50:43
Post #3

antithesis
**************
Group: Металариец
Posts: 2,169
Releases: 27
From: VRN
On Forums: 8 years 1 month
Thanks: 1128 time(s)
Russian Federation


лютейшая хеpня
Go to the top of the page
  Insert nick Quick quote
+Quote Post
post Mar 17 2018, 23:10:55
Post #4

Black is beautiful
***********
Group: Металариец
Posts: 1,577
Releases: 3
On Forums: 6 years 3 months
Thanks: 274 time(s)
Unknown


QUOTE(maringlen @ Aug 4 2017, 22:37:19) *

I can not understand
Go to the top of the page
  Insert nick Quick quote
+Quote Post

Reply to this topicStart new topic
1 User(s) are reading this topic (1 Guests and 0 Anonymous Users)
0 Members:

 



- Lo-Fi Version Support form
Copyrights and abuse reports form
Time is now: 23rd June 2018 - 01:49:54