Welcome Guest ( Log In | Register )

> Forum rules / Правила раздела

Here go releases which can't go to New releases forums due lack of information, stolen links or incorrect data and just founded in other sites links with minimum info. Reissue of this releases through Add release form with added/corrected data, info and own links highly welcomed.

Сюда уходят релизы, не пропущенные в основные релизные форумы по причинам отсутствия, недостаточности или неверности/некорректности сопровождающей информации, содержащие ссылки, указывающие на файлы, залитые не автором темы, а так же просто найденные где-то ссылки с минимумом информации. Переоформление тем отсюда через форму Добавления релиза с перезаливкой ссылок крайне приветствуется.

> Cross - Sólo Quiero Salir De Aquí (2015), Hard Rock
post Aug 8 2017, 03:16:31
Post #1

Правь статус, ####!111
**************
Group: Металариец
Posts: 6,151
Releases: 164
From: URUGUAY
On Forums: 12 years 3 months
Thanks: 15306 time(s)
Uruguay


(IMG:http://metalarea.org/images/audiocovers/2017_Aug/acov_tid292745_thumb.jpg)

*Artist: Cross
*Album: Sуlo Quiero Salir De Aquн
*Year: 2015
*Genre: Hard Rock
*Country: Uruguay (IMG:http://metalarea.org/forum/style_images/flags/Uruguay.png)
*Format: mp3@CBR320kbps
*Size: 171MB

Tracklist:
1. A miles de kilуmetros de acб (1989) 03:46
2. El manicomio (1989) 03:47
3. Hacia los mutantes (1989) 04:01
4. Cross (1989) 02:18
5. Himnos de la muerte (1989) 06:40
6. 6:30 am (1989) 01:02
7. Sуlo quiero salir de aquн (1989) 04:25
8. N.N. (1989) 02:58
9. 110, Amsterdam y el cielo (1989) 03:03
10. El virus de los amplificadores (1989) 01:55
11. Por todos los que estбn muertos y los que vivos luchan aъn (1989) 04:00
12. Policнa del demonio (1989) (Bonus) 03:22
13. El manicomio (1989) (Bonus) 04:21
14. C.R.O.S.S. (1989) (Bonus) 02:21
15. A miles de kilometros de aqui (1989) (Bonus) 03:17
16. N.N. (1989) (Bonus) 03:19
17. Por todos los que estбn muertos... (1989) (Bonus) 04:20
18. Policia del demonio (1989) (Bonus) 03:37
19. Ivanhoe (Demo 85) (Bonus) 03:43
20. Hacia los mutantes (1987) (Bonus) 04:01
21. Sуlo quiero salir de aquн (1987) (Bonus) 03:57
******************************
Total playing time: 1:20:43

Extended info
Recorded at IFU studio in September 1989


Technical info
(IMG:http://metalarea.org/images/spectrogram/2017_Aug/0b7df0f4d6d426a84c8a063c964caa29.png)
Input File: 04.Cross.mp3
Channels : 2
Sample Rate : 44100
Precision : 16-bit
Duration : 00:02:18.36 = 6101676 samples = 10377 CDDA sectors
File Size : 5.72M
Bit Rate : 330k
Sample Encoding: MPEG audio (layer I, II or III)
Comments :
Title=Cross (1989)
Artist=Cross
Album=SГіlo quiero salir de aquГ­
Tracknumber=4/21
Year=2015
Genre=79



Register


Thanks:
(1) cesarkiss,
Go to the top of the page
  Insert nick Quick quote
+Quote Post
 
Start new topic
Replies (1 - 1)
post Dec 9 2018, 10:00:06
Post #2

Четыре Литра
****
Group: Металариец
Posts: 302
Releases: 0
On Forums: 11 years 5 months
Thanks: 7 time(s)
Uruguay


Many thanks, i was searching this version.
Go to the top of the page
  Insert nick Quick quote
+Quote Post

Reply to this topicStart new topic
1 User(s) are reading this topic (1 Guests and 0 Anonymous Users)
0 Members:

 



- Lo-Fi Version Support form
Copyrights and abuse reports form
Time is now: 20th January 2019 - 08:58:28