Welcome Guest ( Log In | Register )

> Gravdal - Kadaverin (2017), Black Metal (D5)
post Aug 10 2017, 12:55:28
Post #1

Serial Uploader
Group Icon
Group: V.I.P
Posts: 32,537
Releases: 30836
From: Lithuania
On Forums: 9 years 11 months
Thanks: 354166 time(s)
Lithuania


(IMG:https://metalarea.org/images/audiocovers/2017_Aug/acov_tid292842_thumb.jpg)

*Artist: Gravdal
*Album: Kadaverin
*Year: 2017
*Genre: Black Metal
*Country: Norway (IMG:https://metalarea.org/forum/style_images/flags/Norway.png)
*Format: mp3@CBR320kbps
*Size: 104MB

Tracklist:
01. Kadaverin 07:26
02. Apostler av døden 05:58
03. Dans med livet, dans med døden 05:05
04. Arkaisk kamp, angrip! 04:43
05. Vi som ser i mørket 05:37
06. Eklipse 03:17
07. Roten til all ondskap 06:35
08. Inni menneskedyret 03:59
09. Når noen tar farvel 02:20
******************************
Total playing time: 45:00

(IMG:https://metalarea.org/images/myspace.png)





Technical info
(IMG:https://metalarea.org/images/spectrogram/2017_Aug/385e066206790f05332c442703bde9fc.png)
Input File: 02. Apostler Av Doden.mp3
Channels : 2
Sample Rate : 44100
Precision : 16-bit
Duration : 00:05:58.69 = 15818317 samples = 26901.9 CDDA sectors
File Size : 14.5M
Bit Rate : 323k
Sample Encoding: MPEG audio (layer I, II or III)
Comments :
Title=Apostler Av Doden
Artist=Gravdal
Album=Kadaverin
Tracknumber=2
Year=2017
Genre=Black Metal



Register


Вернуться к началу страницы
  Insert nick Quick quote
+Цитировать сообщение
 
Создать новую тему
Replies (1 - 4)
post Aug 10 2017, 15:07:21
Post #2

TomheT
**************
Group: Металариец
Posts: 4,175
Releases: 75
From: Малоярославец
On Forums: 10 years 1 month
Thanks: 16355 time(s)
Russian Federation


Register

труба или саксофон в тему (IMG:style_emoticons/default/20.gif)


Вернуться к началу страницы
  Insert nick Quick quote
+Цитировать сообщение
post Aug 12 2017, 08:06:23
Post #3

w00d5b17ch
**
Group: Завсегдатай
Posts: 146
Releases: 0
On Forums: 11 months 2 weeks
Thanks: 35 time(s)
Russian Federation


моменты с саксофоном и правда приятненькие
как будто bohren und der club of gore с блэком намешали


Thanks:
(1) ShmiT,
Вернуться к началу страницы
  Insert nick Quick quote
+Цитировать сообщение
post Aug 17 2017, 01:56:50
Post #4

Crush! Kill! Destroy!
**************
Group: Металариец
Posts: 4,444
Releases: 15
From: Kaliningrad
On Forums: 10 years 6 months
Thanks: 4139 time(s)
Russian Federation


После первого трека (который с одним духовым инструментом) у меня было состояние восторга и мысли - вот он, один из лучшайших альбомов этого года.
К четвертому треку все скатилось в унылое почесывание фаберже и отправилось в корзину. Тьфу, надо же было так начать, чтобы так погано все испортить.


Thanks:
Вернуться к началу страницы
  Insert nick Quick quote
+Цитировать сообщение
post May 16 2018, 18:31:14
Post #5

antithesis
**************
Group: Металариец
Posts: 2,130
Releases: 27
From: VRN
On Forums: 8 years 4 days
Thanks: 1114 time(s)
Russian Federation


ЦИТАТА(Dmitry1977 @ Aug 17 2017, 05:56:50) *
После первого трека (который с одним духовым инструментом) у меня было состояние восторга и мысли - вот он, один из лучшайших альбомов этого года.
К четвертому треку все скатилось в унылое почесывание фаберже и отправилось в корзину. Тьфу, надо же было так начать, чтобы так погано все испортить.

исчерпывающий комментарий. соглашусь.
Вернуться к началу страницы
  Insert nick Quick quote
+Цитировать сообщение

ОтветитьСоздать новую тему
2 User(s) are reading this topic (2 Guests and 0 Anonymous Users)
0 Members:

 



- Lo-Fi Version Support form
Copyrights and abuse reports form
Time is now: 27th May 2018 - 09:02:41