Welcome Guest ( Log In | Register )

> Demon Eye - Prophecies And Lies (2017), Heavy/Doom Metal/Hard Rock
post Aug 11 2017, 07:11:13
Post #1

Каждое ваше "Спасибо" помогает мне понять, что я делаю новости не напрасно.
**************
Group: Металариец
Posts: 2,347
Releases: 2072
From: Одесса
On Forums: 11 years 8 months
Thanks: 18924 time(s)
Ukraine


(IMG:http://metalarea.org/images/audiocovers/2017_Aug/acov_tid292883_thumb.jpg)

*Artist: Demon Eye
*Album: Prophecies And Lies
*Year: 2017
*Genre: Heavy/Doom Metal/Hard Rock
*Country: United States (IMG:http://metalarea.org/forum/style_images/flags/United%20States.png)
*Format: mp3@CBR320kbps
*Size: 106MB

Tracklist:
01. The Waters and the Wild
02. In the Spider’s Eye
03. The Redeemer
04. Kismet
05. Infinite Regress
06. Dying for It
07. Politic Devine
08. Power of One
09. Vagabond
10. Prophecies and Lies
11. Morning’s Son
******************************
Total playing time: 44:09



Extended info
Line - up:

Paul Walz - Bass
Bill Eagen - Drums, Vocals
Larry Burlison - Guitars (lead)
Erik Sugg - Guitars, Vocals (Lightning Born)

(IMG:https://www.metal-archives.com/images/3/5/4/0/3540362982_photo.jpg?2545)


Technical info
(IMG:http://metalarea.org/images/spectrogram/2017_Aug/e2d625d5bbbb03cab4a2af575e51042c.png)
Input File: 11 - Morning\'s Son.mp3
Channels : 2
Sample Rate : 44100
Precision : 16-bit
Duration : 00:07:09.10 = 18923266 samples = 32182.4 CDDA sectors
File Size : 17.2M
Bit Rate : 320k
Sample Encoding: MPEG audio (layer I, II or III)
Comments :
Title=Morning's Son
Artist=Demon Eye
Album=Prophecies and Lies
Tracknumber=11
Year=2017
Genre=Heavy / Doom Metal / Hard Rock



Register


Go to the top of the page
  Insert nick Quick quote
+Quote Post
 
Start new topic
Replies (1 - 4)
post Aug 11 2017, 20:49:35
Post #2

Маньяк
**********
Group: Металариец
Posts: 1,283
Releases: 0
From: Russian Federation - St.Petersburg
On Forums: 10 years 11 months
Thanks: 312 time(s)
Russian Federation


Эхх, жаль что Doogie White поголосить не пригласили... (IMG:style_emoticons/default/6.gif)
Go to the top of the page
  Insert nick Quick quote
+Quote Post
post Aug 11 2017, 20:58:55
Post #3

Правь статус, ####!111
**************
Group: Металариец
Posts: 3,048
Releases: 0
From: Москва
On Forums: 12 years 2 weeks
Thanks: 452 time(s)
Russian Federation


Антивирус матерится . Можно другой файлообменник ?


Thanks:
(1) postal67,
Go to the top of the page
  Insert nick Quick quote
+Quote Post
post Aug 11 2017, 21:33:43
Post #4

Аннигилятор пивА
Group Icon
Group: V.I.P
Posts: 52,360
Releases: 16551
From: Koenigsberg - TILZIT
On Forums: 13 years 8 months
Thanks: 364211 time(s)
Russian Federation


101MB/320
Register


Go to the top of the page
  Insert nick Quick quote
+Quote Post
post Aug 11 2017, 21:42:48
Post #5

Правь статус, ####!111
**************
Group: Металариец
Posts: 3,048
Releases: 0
From: Москва
On Forums: 12 years 2 weeks
Thanks: 452 time(s)
Russian Federation


ЦИТАТА(aesteticvice @ Aug 11 2017, 23:33:43) *
101MB/320


Камрад , спасибо ! Ты реально всегда приходишь на помощь , если можешь . (IMG:style_emoticons/default/9.gif)
Go to the top of the page
  Insert nick Quick quote
+Quote Post

Reply to this topicStart new topic
2 User(s) are reading this topic (2 Guests and 0 Anonymous Users)
0 Members:

 



- Lo-Fi Version Support form
Copyrights and abuse reports form
Time is now: 24th February 2020 - 12:10:44