Welcome Guest ( Log In | Register )

> Hideous Evocation - No God Land (2017), Symphonic Black/Death Metal
post Aug 17 2017, 10:05:00
Post #1

Аннигилятор пивА
Group Icon
Group: V.I.P
Posts: 52,356
Releases: 16556
From: Koenigsberg - TILZIT
On Forums: 13 years 1 month
Thanks: 361407 time(s)
Russian Federation


(IMG:https://metalarea.org/images/audiocovers/2017_Aug/acov_tid293164_thumb.jpg)

*Artist: Hideous Evocation
*Album: No God Land
*Year: 2017
*Genre: Symphonic Black/Death Metal
*Country: Portugal (IMG:https://metalarea.org/forum/style_images/flags/Portugal.png)
*Format: mp3@CBR320kbps
*Size: 64MB

Tracklist:
1. No God Land
2. Serpent Divine
3. If It Returns
4. The Slaughter Of The Creator
5. Bleeding Memories
6. Outro
******************************
Total playing time: 28:09



Extended info
Danny Saldanha - Vocals
Guilherme Abreu - Guitar & Bass
Nelson De Sousa - Keyboards, Synthesizers, Drums



Technical info
(IMG:https://metalarea.org/images/spectrogram/2017_Aug/4df096f08b6a1ceb5f59bb9e8300f2db.png)
Input File: 02 - Serpent Divine.mp3
Channels : 2
Sample Rate : 48000
Precision : 16-bit
Duration : 00:04:24.05 = 12674448 samples ~ 19803.8 CDDA sectors
File Size : 10.7M
Bit Rate : 323k
Sample Encoding: MPEG audio (layer I, II or III)
Comments :
Title=Serpent Divine
Artist=Hideous Evocation
Album=No God Land
Tracknumber=2
Year=2017
Genre=Symphonic Black/Death Metal



Register


Go to the top of the page
  Insert nick Quick quote
+Quote Post
 
Start new topic
Replies (1 - 1)
post Aug 17 2017, 13:54:46
Post #2

Morbid Angel
**************
Group: Металариец
Posts: 4,166
Releases: 0
From: Литва г.Клайпеда
On Forums: 12 years 4 months
Thanks: 1773 time(s)
Lithuania




Thanks:
(1) AHBAnep,
Go to the top of the page
  Insert nick Quick quote
+Quote Post

Reply to this topicStart new topic
2 User(s) are reading this topic (2 Guests and 0 Anonymous Users)
0 Members:

 



- Lo-Fi Version Support form
Copyrights and abuse reports form
Time is now: 18th July 2019 - 05:40:25