Welcome Guest ( Log In | Register )

> И неформату есть предел.

Рэп/хип-хоп/шансон/поп удаляются. Для них есть свои порталы.

 
ОтветитьСоздать новую тему
> The Symposium - The Symposium (2017), Indie/Psychedelic Rock
post Aug 17 2017, 12:02:02
Post #1

ME[ta]LLOMAN
**************
Group: Металариец
Posts: 4,817
Releases: 3
From: Hughes'sRegion\Avdeyevka
On Forums: 11 years 10 months
Thanks: 1697 time(s)
Honduras


(IMG:http://metalarea.org/images/audiocovers/2017_Aug/acov_tid293170_thumb.jpg)

*Artist: The Symposium
*Album: The Symposium
*Year: 2017
*Genre: Indie/Psychedelic Rock
*Country: United States (IMG:http://metalarea.org/forum/style_images/flags/United%20States.png)
*Format: mp3@CBR320kbps
*Size: 94MB

Tracklist:
1.Streems 04:15
2.ACL 04:39
3.Soft Love 05:30
4.The Physical Attractions 04:44
5.Creeper 04:11
6.Based 02:43
7.Nino 2 03:04
8.Synth Song 03:14
9.Red River 03:22
10.Starfall 03:58
******************************
Total playing time: 39:40



Preview 3

Extended info
Участники группы
Sam, Chuck, Brian, Benny & the Goetz.
Родной город
Chicago, IL
Информация
A couple of dudes in a bad mood, trying to make a change.
Biography
The Symposium is a Chicago based band comprised of four members.
Sam Clancy: guitarist - the pensive trailblazer. … Еще
Текущее местонахождение
Chicago
Влияния
The Unicorns, The Beatles, The Strokes, Mac Demarco, T-Rex, Dr. Dog, Harry Nilsson


Technical info
(IMG:http://metalarea.org/images/spectrogram/2017_Aug/ac74835b874e016a0dbb282dc399637e.png)
Input File: The Symposium - Streems.mp3
Channels : 2
Sample Rate : 44100
Precision : 16-bit
Duration : 00:04:15.89 = 11284881 samples = 19192 CDDA sectors
File Size : 10.3M
Bit Rate : 323k
Sample Encoding: MPEG audio (layer I, II or III)
Comments :
Title=Streems
Artist=The Symposium
Album=The Symposium
Tracknumber=1
Year=2017
Genre=Psychedelic Pop / Indie Rock



Register


Thanks:
Вернуться к началу страницы
  Insert nick Quick quote
+Цитировать сообщение

ОтветитьСоздать новую тему
1 User(s) are reading this topic (1 Guests and 0 Anonymous Users)
0 Members:

 



- Lo-Fi Version Support form
Copyrights and abuse reports form
Time is now: 20th February 2018 - 12:56:58