Welcome Guest ( Log In | Register )

> Muert - Ye Canariae Abezan (2017), Black Metal
post Aug 18 2017, 05:07:26
Post #1

Аннигилятор пивА
Group Icon
Group: V.I.P
Posts: 52,360
Releases: 16550
From: Koenigsberg - TILZIT
On Forums: 14 years 4 months
Thanks: 366234 time(s)
Russian Federation


(IMG:https://metalarea.org/images/audiocovers/2017_Aug/acov_tid293204_thumb.png)

*Artist: Muert
*Album: Ye Canariae Abezan
*Year: 2017
*Genre: Black Metal
*Country: Spain (IMG:https://metalarea.org/forum/style_images/flags/Spain.png)
*Format: mp3@CBR320kbps
*Size: 101MB

Tracklist:
1. Invocatio Ad Guanche Abezan
2. Olor a Muert
3. Of Corpses, Evil & Drinks...
4. 1.000 Momias
5. Acentejo 1494
6. Crueldad Desde Islas Canarias
7. Sacrifice in the Wild Reigns of Aguere
8. Leprocity
9. Leyendland
******************************
Total playing time: 40:14


Preview 2

Extended info
Canarian Terror Metal
Satur - Bass See also: Schwarzwald, Vargstuhr, ex-In Human Form, ex-Sulphur Feast
Guayota - Drums (2010-present) See also: Death Above, Nigra Eucharistia, ex-The Olsen's Crypt
Ebola - Vocals, Guitars (2010-present) See also: Cryfemal, Stormvold, ex-Indomitus, ex-Postmortem, ex-Agaliareth, ex-Godüs


Technical info
(IMG:https://metalarea.org/images/spectrogram/2017_Aug/53e8ae454d13ef3b9d35364f3a7e1ee0.png)
Input File: 3 - Of Corpses_ Evil & Drinks.mp3
Channels : 2
Sample Rate : 44100
Precision : 16-bit
Duration : 00:03:48.02 = 10055594 samples = 17101.4 CDDA sectors
File Size : 10.1M
Bit Rate : 355k
Sample Encoding: MPEG audio (layer I, II or III)
Comments :
Title=Of Corpses, Evil & Drinks
Artist=Muert
Album=Ye Canariae Abezan
Tracknumber=3/9
Year=2017
Genre=Black Metal



Register


Go to the top of the page
  Insert nick Quick quote
+Quote Post
 
Start new topic
Replies (1 - 4)
post Nov 27 2019, 10:26:12
Post #2

Два Литра
**
Group: Завсегдатай
Posts: 154
Releases: 0
On Forums: 1 year 5 months
Thanks: 10 time(s)
Russian Federation


Could anyone add a new link?)
Go to the top of the page
  Insert nick Quick quote
+Quote Post
post Nov 27 2019, 12:24:41
Post #3

Пять Литров
*****
Group: Металариец
Posts: 475
Releases: 0
On Forums: 12 years 3 months
Thanks: 857 time(s)
Russian Federation


cbr 320

Register


Thanks:
(1) Djarovich,
Go to the top of the page
  Insert nick Quick quote
+Quote Post
post Oct 18 2020, 10:27:14
Post #4

Два Литра
**
Group: Завсегдатай
Posts: 154
Releases: 0
On Forums: 1 year 5 months
Thanks: 10 time(s)
Russian Federation


Прошу залить ссылку-все мертвы
Go to the top of the page
  Insert nick Quick quote
+Quote Post
post Oct 19 2020, 08:19:31
Post #5

Group Icon
Group: S-moderation team
Posts: 17,248
Releases: 1441
From: Zagreb
On Forums: 9 years 7 months
Thanks: 78453 time(s)
Croatia


Register


Thanks:
Go to the top of the page
  Insert nick Quick quote
+Quote Post

Reply to this topicStart new topic
1 User(s) are reading this topic (1 Guests and 0 Anonymous Users)
0 Members:

 



- Lo-Fi Version Support form
Copyrights and abuse reports form
Time is now: 24th October 2020 - 01:18:20