Welcome Guest ( Log In | Register )

> И неформату есть предел.

Рэп/хип-хоп/шансон/поп удаляются. Для них есть свои порталы.

 
Reply to this topicStart new topic
> Geistzeremonie - Geistzeremonie [demo] (2013), Noise
post Aug 18 2017, 14:35:00
Post #1

Правь статус, ####!616
**************
Group: Металариец
Posts: 4,398
Releases: 3004
From: 55°35’N 38°08’E
On Forums: 9 years 11 months
Thanks: 55882 time(s)
Unknown


(IMG:http://metalarea.org/images/audiocovers/2017_Aug/acov_tid293239_thumb.jpg)

*Artist: Geistzeremonie
*Album: Geistzeremonie [demo]
*Year: 2013
*Genre: Noise
*Country: Netherlands (IMG:http://metalarea.org/forum/style_images/flags/Netherlands.png)
*Format: mp3@CBR320kbps
*Size: 25MB

Tracklist:
01. Untitled 11:11
******************************
Total playing time: 11:11

Extended info
Geistzeremonie:
Erghal - Nachtvorst, Darkness Enshrouded the Mist, Eindig, Goat Altar, Rakshasa, Candlegoat, Sea of Trees, Limb ER, Wolfsduister, Zero, Hort
Azathoth - Entsetzlich, Entity, Ethereal Mist, Kryptus, Torchbearer, Winds of Nihilism

Cassette, Dungeon Tapes (Limited to 50 copies.)
Tape-rip


Technical info
(IMG:http://metalarea.org/images/spectrogram/2017_Aug/6a316f5bec3d8e35bfa26ee424d3adb2.png)
Input File: 01 Untitled.mp3
Channels : 2
Sample Rate : 44100
Precision : 16-bit
Duration : 00:11:11.40 = 29608696 samples = 50354.9 CDDA sectors
File Size : 26.9M
Bit Rate : 320k
Sample Encoding: MPEG audio (layer I, II or III)
Comments :
Title=Untitled
Artist=Geistzeremonie
Album=Geistzeremonie
Tracknumber=1
Year=2013
Genre=Noise



Register


Thanks:
(1) Raw1488,
Go to the top of the page
  Insert nick Quick quote
+Quote Post

Reply to this topicStart new topic
1 User(s) are reading this topic (1 Guests and 0 Anonymous Users)
0 Members:

 



- Lo-Fi Version Support form
Copyrights and abuse reports form
Time is now: 23rd June 2018 - 11:25:40