Welcome Guest ( Log In | Register )

> Ramihrdus - Eternity (2017), Ambient Black Metal
post Aug 18 2017, 15:57:26
Post #1

Правь статус, ####!616
**************
Group: Металариец
Posts: 4,674
Releases: 3257
From: 55°35’N 38°08’E
On Forums: 11 years 1 month
Thanks: 61270 time(s)
Unknown


(IMG:http://metalarea.org/images/audiocovers/2017_Aug/acov_tid293241_thumb.jpg)

*Artist: Ramihrdus
*Album: Eternity
*Year: 2017
*Genre: Ambient Black Metal
*Country: United States (IMG:http://metalarea.org/forum/style_images/flags/United%20States.png)
*Format: mp3@CBR320kbps
*Size: 75MB

Tracklist:
1.Cold Winds of the Wild 01:14
2.The Ethereal Forest 04:41
3.Lake Evendim 05:59
4.The Prancing Pony 01:51
5.Crypts of the Frost Storm 05:26
6.Eternity 06:53
7.Closure 05:32
******************************
Total playing time: 31:36



Technical info
(IMG:http://metalarea.org/images/spectrogram/2017_Aug/2c5ad699843a03e3d3cc9d29957c9e79.png)
Input File: 02 The Ethereal Forest.mp3
Channels : 2
Sample Rate : 44100
Precision : 16-bit
Duration : 00:04:41.39 = 12409475 samples = 21104.5 CDDA sectors
File Size : 11.4M
Bit Rate : 323k
Sample Encoding: MPEG audio (layer I, II or III)
Comments :
Title=The Ethereal Forest
Artist=Ramihrdus
Album=Eternity
Tracknumber=2
Year=2017
Genre=Ambient Black Metal



Register


Go to the top of the page
  Insert nick Quick quote
+Quote Post
 
Start new topic
Replies (1 - 2)
post Aug 18 2017, 22:10:02
Post #2

Маньяк
**********
Group: Металариец
Posts: 1,230
Releases: 0
From: Russian Federation - St.Petersburg
On Forums: 10 years 5 months
Thanks: 285 time(s)
Russian Federation


Эхх, периодически слушаю похожие темы, но после нижнего сабжа ничего в подобном стиле пока больше что-то не нравится... (IMG:style_emoticons/default/hmm.gif)
https://www.youtube.com/watch?v=RaoVdzo00lI
Go to the top of the page
  Insert nick Quick quote
+Quote Post
post Feb 11 2019, 18:13:06
Post #3

Full-of-Hate
**************
Group: Металариец
Posts: 3,128
Releases: 0
From: Moscow
On Forums: 10 years 1 month
Thanks: 2565 time(s)
Russian Federation


Простенько и не особо атмосферно раз на то пошло. Альбом сляпан на компьютере в простых программах. Никакой эстетики жанровой не замечено, в основном из-за дешевизны звука. Неплохие музыкальные идеи под блэк из девяностых до ума не доведены.
Go to the top of the page
  Insert nick Quick quote
+Quote Post

Reply to this topicStart new topic
2 User(s) are reading this topic (2 Guests and 0 Anonymous Users)
0 Members:

 



- Lo-Fi Version Support form
Copyrights and abuse reports form
Time is now: 19th August 2019 - 18:22:42