Welcome Guest ( Log In | Register )

> И неформату есть предел.

Рэп/хип-хоп/шансон/поп удаляются. Для них есть свои порталы.

> Dementia Ad Vitam - Spirit Of The Trees (2008), Dark Ambient/Neoclassical
post Aug 18 2017, 20:19:00
Post #1

Angel Eviscerator
**************
Group: Металариец
Posts: 4,007
Releases: 2684
From: 55°35’N 38°08’E
On Forums: 9 years 7 months
Thanks: 51354 time(s)
Russian Federation


(IMG:http://metalarea.org/images/audiocovers/2017_Aug/acov_tid293248_thumb.jpg)

*Artist: Dementia Ad Vitam
*Album: Spirit Of The Trees
*Year: 2008
*Genre: Dark Ambient/Neoclassical
*Country: France (IMG:http://metalarea.org/forum/style_images/flags/France.png)
*Format: mp3@CBR320kbps
*Size: 75MB

Tracklist:
1 ... Pour Sept Sombres Mensonges 1:36
2 Le Bois Des Plaintes 5:32
3 Sépulture 2:29
4 Brocéliande 2:03
5 Le Sang Nourrit Les Arbres 0:45
6 Immensus 4:35
7 Autumn Wind 4:10
8 Agony Of The Cursed 1:55
9 Aeternus Procella 3:58
10 Enlaçant Les Ténèbres ... 5:27
******************************
Total playing time: 32:30




Extended info
CD, Occultum Productions


Technical info
(IMG:http://metalarea.org/images/spectrogram/2017_Aug/fe1953538056b02c702cdc4d29652288.png)
Input File: 03 S?pulture.mp3
Channels : 2
Sample Rate : 44100
Precision : 16-bit
Duration : 00:02:29.49 = 6592465 samples = 11211.7 CDDA sectors
File Size : 6.11M
Bit Rate : 327k
Sample Encoding: MPEG audio (layer I, II or III)
Comments :
Title=SГ©pulture
Artist=Dementia Ad Vitam
Album=Spirit Of The Trees
Tracknumber=3
Year=2008
Genre=Other



Register


Вернуться к началу страницы
  Insert nick Quick quote
+Цитировать сообщение
 
Создать новую тему
Replies (1 - 1)
post Aug 30 2017, 05:37:02
Post #2

i listen to black metal
**************
Group: Металариец
Posts: 2,119
Releases: 128
From: Москва-Лианозово
On Forums: 11 years 2 months
Thanks: 1969 time(s)
Russian Federation


скучно...
Вернуться к началу страницы
  Insert nick Quick quote
+Цитировать сообщение

ОтветитьСоздать новую тему
1 User(s) are reading this topic (1 Guests and 0 Anonymous Users)
0 Members:

 



- Lo-Fi Version Support form
Copyrights and abuse reports form
Time is now: 20th February 2018 - 12:55:31