Welcome Guest ( Log In | Register )

> И неформату есть предел.

Рэп/хип-хоп/шансон/поп удаляются. Для них есть свои порталы.

 
ОтветитьСоздать новую тему
> LULU - We're About To Throw Up [ep] (2017), Hardcore Punk/Fastcore
post Aug 19 2017, 16:35:08
Post #1

Правь статус, ####!111
**************
Group: Металариец
Posts: 3,497
Releases: 1811
From: Земля
On Forums: 3 years 11 months
Thanks: 9720 time(s)
Russian Federation


(IMG:https://metalarea.org/images/audiocovers/2017_Aug/acov_tid293279_thumb.jpg)

*Artist: LULU
*Album: We're About To Throw Up [ep]
*Year: 2017
*Genre: Hardcore Punk/Fastcore
*Country: Italy (IMG:https://metalarea.org/forum/style_images/flags/Italy.png)
*Format: mp3@CBR320kbps
*Size: 14MB

Tracklist:
1. Wait in Vain 00:48
2. Biting Flesh 00:46
3. Barrio 01:12
4. Can't Last 00:42
5. Pig 00:35
6. Diy 00:42
7. Fast 'Till The Day 01:04
******************************
Total playing time: 5:49



Extended info
Female Vocal


Technical info
(IMG:https://metalarea.org/images/spectrogram/2017_Aug/588ed2a8e38c0b0290ce415c925f2dc9.png)
Input File: LULU - We\'re About To Throw Up - 01 Wait in Vain.mp3
Channels : 2
Sample Rate : 44100
Precision : 16-bit
Duration : 00:00:48.78 = 2150978 samples = 3658.13 CDDA sectors
File Size : 1.99M
Bit Rate : 327k
Sample Encoding: MPEG audio (layer I, II or III)
Comments :
Title=Wait in Vain
Artist=LULU
Album=We're About To Throw Up
Tracknumber=1
Year=2017



Register


Thanks:
(1) DarkHorde,
Вернуться к началу страницы
  Insert nick Quick quote
+Цитировать сообщение

ОтветитьСоздать новую тему
1 User(s) are reading this topic (1 Guests and 0 Anonymous Users)
0 Members:

 



- Lo-Fi Version Support form
Copyrights and abuse reports form
Time is now: 20th February 2018 - 12:54:01