Welcome Guest ( Log In | Register )

> И неформату есть предел.

Рэп/хип-хоп/шансон/поп удаляются. Для них есть свои порталы.

 
ОтветитьСоздать новую тему
> Vex - Tunes Of Our Life (2017), Hardcore Punk (D12)
post Aug 19 2017, 17:30:01
Post #1

Правь статус, ####!111
**************
Group: Металариец
Posts: 3,497
Releases: 1811
From: Земля
On Forums: 3 years 11 months
Thanks: 9720 time(s)
Russian Federation


(IMG:https://metalarea.org/images/audiocovers/2017_Aug/acov_tid293281_thumb.jpg)

*Artist: Vex
*Album: Tunes Of Our Life
*Year: 2017
*Genre: Hardcore Punk
*Country: Hungary (IMG:https://metalarea.org/forum/style_images/flags/Hungary.png)
*Format: mp3@CBR320kbps
*Size: 27MB

Tracklist:
1. Riot 01:52
2. Burn 01:12
3. King orbán 01:05
4. Hypochondria 01:40
5. Can you feel it? 01:10
6. Borders 01:14
7. My choice 01:02
8. Véget ér 02:01
******************************
Total playing time: 11:16



Extended info
Female Vocal


Technical info
(IMG:https://metalarea.org/images/spectrogram/2017_Aug/dc523a3850a412f1b7a7c71d87327d4b.png)
Input File: Vex - Tunes of our life - 01 Riot.mp3
Channels : 2
Sample Rate : 44100
Precision : 16-bit
Duration : 00:01:53.07 = 4986299 samples = 8480.1 CDDA sectors
File Size : 4.63M
Bit Rate : 328k
Sample Encoding: MPEG audio (layer I, II or III)
Comments :
Title=Riot
Artist=Vex
Album=Tunes of our life
Tracknumber=1
Year=2017



Register


Thanks:
Вернуться к началу страницы
  Insert nick Quick quote
+Цитировать сообщение

ОтветитьСоздать новую тему
1 User(s) are reading this topic (1 Guests and 0 Anonymous Users)
0 Members:

 



- Lo-Fi Version Support form
Copyrights and abuse reports form
Time is now: 20th February 2018 - 12:55:38