Welcome Guest ( Log In | Register )

> И неформату есть предел.

Рэп/хип-хоп/шансон/поп удаляются. Для них есть свои порталы.

 
Reply to this topicStart new topic
> Kylmänviha - Veiksel (2017), Hardcore Punk/Crust/Crossover
post Aug 19 2017, 18:05:16
Post #1

Правь статус, ####!111
**************
Group: Металариец
Posts: 3,497
Releases: 1811
From: Земля
On Forums: 4 years 3 months
Thanks: 9754 time(s)
Russian Federation


(IMG:https://metalarea.org/images/audiocovers/2017_Aug/acov_tid293285_thumb.jpg)

*Artist: Kylmänviha
*Album: Veiksel
*Year: 2017
*Genre: Hardcore Punk/Crust/Crossover
*Country: Finland (IMG:https://metalarea.org/forum/style_images/flags/Finland.png)
*Format: mp3@CBR320kbps
*Size: 50MB

Tracklist:
1. Intro/Tämän maailman takana 02:04
2. Half of them 02:02
3. Chaotic minds 02:40
4. Loiset 01:59
5. Luotan vain pimeyteen 01:57
6. Rukous 01:43
7. Salvation 01:36
8. Ratkaisu 01:27
9. Suakin valvotaan 01:18
10. Itsesäälijät 00:54
11. Lammas 02:11
12. Haluan olla... 00:47
******************************
Total playing time: 20:38



Technical info
(IMG:https://metalarea.org/images/spectrogram/2017_Aug/4fb66ebc976c6a63e29b14fa3d5ee4fc.png)
Input File: KYLM?NVIHA - Veiksel - 01 Intro-T?m?n maailman takana.mp3
Channels : 2
Sample Rate : 44100
Precision : 16-bit
Duration : 00:02:04.93 = 5509369 samples = 9369.68 CDDA sectors
File Size : 5.14M
Bit Rate : 329k
Sample Encoding: MPEG audio (layer I, II or III)
Comments :
Title=Intro/Tämän maailman takana
Artist=KYLMГ„NVIHA
Album=Veiksel
Tracknumber=1
Year=2017



Register
Go to the top of the page
  Insert nick Quick quote
+Quote Post

Reply to this topicStart new topic
1 User(s) are reading this topic (1 Guests and 0 Anonymous Users)
0 Members:

 



- Lo-Fi Version Support form
Copyrights and abuse reports form
Time is now: 23rd June 2018 - 11:23:03