Welcome Guest ( Log In | Register )

> И неформату есть предел.

Рэп/хип-хоп/шансон/поп удаляются. Для них есть свои порталы.

 
ОтветитьСоздать новую тему
> Medhelan - Fall Of The Horned Serpent (2016), Dungeon Synth/Neoclassical
post Aug 19 2017, 20:10:42
Post #1

Angel Eviscerator
**************
Group: Металариец
Posts: 4,007
Releases: 2684
From: 55°35’N 38°08’E
On Forums: 9 years 7 months
Thanks: 51348 time(s)
Russian Federation


(IMG:http://metalarea.org/images/audiocovers/2017_Aug/acov_tid293294_thumb.jpg)

*Artist: Medhelan
*Album: Fall Of The Horned Serpent
*Year: 2016
*Genre: Dungeon Synth/Neoclassical
*Country: Italy (IMG:http://metalarea.org/forum/style_images/flags/Italy.png)
*Format: mp3@CBR320kbps
*Size: 129MB

Tracklist:
1.Hail the High King 04:28
2.Land of the Ancestors 06:52
3.A Dove among Serpents 05:48
4.Wisdom and Fear 05:44
5.The Pyre of Gods 06:09
6.Summon the Clans 06:14
7.The Chieftains' Last Ride 09:16
8.A Song for the Exiled 08:18
******************************
Total playing time: 52:49



Extended info
+ scans


Technical info
(IMG:http://metalarea.org/images/spectrogram/2017_Aug/828aacdf5e04a1b9726f0f4eae1bc1d4.png)
Input File: 01 Hail the High King.mp3
Channels : 2
Sample Rate : 44100
Precision : 16-bit
Duration : 00:04:28.44 = 11838028 samples = 20132.7 CDDA sectors
File Size : 10.9M
Bit Rate : 324k
Sample Encoding: MPEG audio (layer I, II or III)
Comments :
Title=Hail The High King
Artist=Medhelan
Album=Fall Of The Horned Serpent
Tracknumber=1
Year=2016
Genre=Other



Register


Thanks:
Вернуться к началу страницы
  Insert nick Quick quote
+Цитировать сообщение

ОтветитьСоздать новую тему
1 User(s) are reading this topic (1 Guests and 0 Anonymous Users)
0 Members:

 



- Lo-Fi Version Support form
Copyrights and abuse reports form
Time is now: 20th February 2018 - 00:57:13