Welcome Guest ( Log In | Register )

> И неформату есть предел.

Рэп/хип-хоп/шансон/поп удаляются. Для них есть свои порталы.

 
Reply to this topicStart new topic
> Thangorodrim - Taur Nu Fuin (2016), Dungeon Synth/Dark Ambient
post Aug 19 2017, 20:17:55
Post #1

Правь статус, ####!616
**************
Group: Металариец
Posts: 4,398
Releases: 3004
From: 55°35’N 38°08’E
On Forums: 9 years 11 months
Thanks: 55857 time(s)
Unknown


(IMG:http://metalarea.org/images/audiocovers/2017_Aug/acov_tid293295_thumb.jpg)

*Artist: Thangorodrim
*Album: Taur Nu Fuin
*Year: 2016
*Genre: Dungeon Synth/Dark Ambient
*Country: United States (IMG:http://metalarea.org/forum/style_images/flags/United%20States.png)
*Format: mp3@CBR320kbps
*Size: 114MB

Tracklist:
1.In Hills of Shadow Bleak and Cold 11:48
2.None Stirred the Listening Leaves 11:38
3.Twilit Fogs on Tarn Aeluin 14:24
4.Gwindor's Rest 11:41
******************************
Total playing time: 49:31



Extended info
+ scans


Technical info
(IMG:http://metalarea.org/images/spectrogram/2017_Aug/68d09185b65159123978ef973d774070.png)
Input File: 01 In Hills of Shadow Bleak and Cold.mp3
Channels : 2
Sample Rate : 44100
Precision : 16-bit
Duration : 00:11:50.01 = 31311353 samples = 53250.6 CDDA sectors
File Size : 28.4M
Bit Rate : 320k
Sample Encoding: MPEG audio (layer I, II or III)
Comments :
Title=In Hills of Shadow Bleak and Cold
Artist=Thangorodrim
Album=Taur-Nu-Fuin
Tracknumber=1
Year=2016
Genre=Other



Register


Go to the top of the page
  Insert nick Quick quote
+Quote Post

Reply to this topicStart new topic
1 User(s) are reading this topic (1 Guests and 0 Anonymous Users)
0 Members:

 



- Lo-Fi Version Support form
Copyrights and abuse reports form
Time is now: 21st June 2018 - 04:00:07