Welcome Guest ( Log In | Register )

> И неформату есть предел.

Рэп/хип-хоп/шансон/поп удаляются. Для них есть свои порталы.

 
ОтветитьСоздать новую тему
> Arath - Treasures From The Dungeon [best of/compilation] (2016), Dungeon Synth/Medieval/Dark Ambient
post Aug 19 2017, 22:47:44
Post #1

Angel Eviscerator
**************
Group: Металариец
Posts: 4,007
Releases: 2684
From: 55°35’N 38°08’E
On Forums: 9 years 7 months
Thanks: 51354 time(s)
Russian Federation


(IMG:http://metalarea.org/images/audiocovers/2017_Aug/acov_tid293299_thumb.jpg)

*Artist: Arath
*Album: Treasures From The Dungeon [best of/compilation]
*Year: 2016
*Genre: Dungeon Synth/Medieval/Dark Ambient
*Country: Germany (IMG:http://metalarea.org/forum/style_images/flags/Germany.png)
*Format: mp3@CBR320kbps
*Size: 237MB

Tracklist:
CD-I - The Untold Tales

1.Off To New Adventures (2011) 02:44
2.In Misty Forests (2004) 02:07
3.At The King's Court (2011) 05:04
4.The Secret Of Steel (2010) 08:57
5.Danger At Dawn (2011) 01:30
6.The Honorable Guards Of Might (2012) 04:14
7.Ice (2004) 01:42
8.The Castle In The Hills (2011) 05:01
9.Lamentation Of The Dwarf (2011) 03:16
10.Into Glory Battle (2011) 05:40
11.The Endless Halls Of Wisdom (2011) 02:37

CD-II - Forefathers and Kinsfolk

12.Klimm Othbargk (demo version 2011) 04:53
13.In Misty Forests (1st version 1997) 02:49
14.A Dark Fortress in the North (2011) 03:12
15.The Airs of the Barbaric Lands (2011) 06:12
16.Feyr (demo version 2011) 06:34
17.Her Fate (2011) 01:30
18.Wolf’s Lair (2011) 03:50
19.In the Temple of the Frozen Queen (2011) 04:10
20.The Bridge into an Unknown Land (2003) 09:38
21.Avarsthending enedh Heroden (alternative demo version 2011) 07:27
22.Untitled Tribute to Pazuzu (2011) 04:41 (Bonus)
23.Untitled Tribute to Burzum (2011) 04:57 (Bonus)
******************************
Total playing time: 1:42:45



Extended info
+ scans


Technical info
(IMG:http://metalarea.org/images/spectrogram/2017_Aug/98834d3c138bef30662558edc9766db4.png)
Input File: 01 Off To New Adventures.mp3
Channels : 2
Sample Rate : 44100
Precision : 16-bit
Duration : 00:02:49.03 = 7454179 samples = 12677.2 CDDA sectors
File Size : 6.76M
Bit Rate : 320k
Sample Encoding: MPEG audio (layer I, II or III)
Comments :
Title=Off To New Adventures (2011)
Artist=Arath
Album=The Untold Tales
Tracknumber=1
Year=2016
Genre=Other



Register


Вернуться к началу страницы
  Insert nick Quick quote
+Цитировать сообщение

ОтветитьСоздать новую тему
1 User(s) are reading this topic (1 Guests and 0 Anonymous Users)
0 Members:

 



- Lo-Fi Version Support form
Copyrights and abuse reports form
Time is now: 20th February 2018 - 12:55:00