Welcome Guest ( Log In | Register )

> И неформату есть предел.

Рэп/хип-хоп/шансон/поп удаляются. Для них есть свои порталы.

 
ОтветитьСоздать новую тему
> Arath - Arath (2013), Dungeon Synth/Medieval/Dark Ambient
post Aug 19 2017, 22:54:38
Post #1

Angel Eviscerator
**************
Group: Металариец
Posts: 4,007
Releases: 2684
From: 55°35’N 38°08’E
On Forums: 9 years 7 months
Thanks: 51354 time(s)
Russian Federation


(IMG:http://metalarea.org/images/audiocovers/2017_Aug/acov_tid293300_thumb.jpg)

*Artist: Arath
*Album: Arath
*Year: 2013
*Genre: Dungeon Synth/Medieval/Dark Ambient
*Country: Germany (IMG:http://metalarea.org/forum/style_images/flags/Germany.png)
*Format: mp3@CBR320kbps
*Size: 104MB

Tracklist:
1.Avarsthending enedh Heroden 05:53
2.Klimm Othbargk (Pathen Rikith) 06:32
3.Feyr 06:32
4.Drey Kriegrim att vagefall Reithenar 06:23
5.Nattdraemr : Hergrim oev Langrim ut Margrim 11:56
6.Att Ungedul 08:25
******************************
Total playing time: 45:41



Extended info
+ scans


Technical info
(IMG:http://metalarea.org/images/spectrogram/2017_Aug/6f7a23c826ee3a09b40625a8a47b4c7f.png)
Input File: 03 Feyr.mp3
Channels : 2
Sample Rate : 44100
Precision : 16-bit
Duration : 00:06:32.35 = 17302459 samples = 29426 CDDA sectors
File Size : 15.8M
Bit Rate : 322k
Sample Encoding: MPEG audio (layer I, II or III)
Comments :
Title=Feyr
Artist=Arath
Album=Arath
Tracknumber=3
Year=2013
Genre=Other



Register


Вернуться к началу страницы
  Insert nick Quick quote
+Цитировать сообщение

ОтветитьСоздать новую тему
1 User(s) are reading this topic (1 Guests and 0 Anonymous Users)
0 Members:

 



- Lo-Fi Version Support form
Copyrights and abuse reports form
Time is now: 20th February 2018 - 12:56:13