Welcome Guest ( Log In | Register )

> И неформату есть предел.

Рэп/хип-хоп/шансон/поп удаляются. Для них есть свои порталы.

 
Reply to this topicStart new topic
> Murgrind - Journey Through The Mountain (2013), Dungeon Synth/Medieval/Dark Ambient
post Aug 20 2017, 01:12:27
Post #1

Правь статус, ####!616
**************
Group: Металариец
Posts: 4,392
Releases: 3000
From: 55°35’N 38°08’E
On Forums: 9 years 11 months
Thanks: 55760 time(s)
Unknown


(IMG:http://metalarea.org/images/audiocovers/2017_Aug/acov_tid293302_thumb.jpg)

*Artist: Murgrind
*Album: Journey Through The Mountain
*Year: 2013
*Genre: Dungeon Synth/Medieval/Dark Ambient
*Country: Germany (IMG:http://metalarea.org/forum/style_images/flags/Germany.png)
*Format: mp3@CBR320kbps
*Size: 142MB

Tracklist:
1.Gate Of Stone (Intro) 02:26
2.Burning Torches 03:30
3.Into The Magic Abyss 07:13
4.Legend Of The Ancient Hoard 07:31
5.Arise In Darkness 06:55
6.A Vision Of Northern Tribes 08:30
7.Woodland Passage 08:45
8.The End (Outro) 01:11
9. A tribute to Mortiis part I (Bonus) 06:21
10. A tribute to Mortiis part II (Bonus) 10:10
******************************
Total playing time: 1:02:32



Extended info
+ artwork pack


Technical info
(IMG:http://metalarea.org/images/spectrogram/2017_Aug/76b4fcad42781b07bd382d749286a0db.png)
Input File: 06. A Vision Of Northern Tribes.mp3
Channels : 2
Sample Rate : 44100
Precision : 16-bit
Duration : 00:08:31.03 = 22536511 samples = 38327.4 CDDA sectors
File Size : 20.5M
Bit Rate : 321k
Sample Encoding: MPEG audio (layer I, II or III)
Comments :
Title=A Vision Of Northern Tribes
Artist=Murgrind
Album=Journey Through The Mountain
Tracknumber=6
Year=2013
Genre=Other



Register


Go to the top of the page
  Insert nick Quick quote
+Quote Post

Reply to this topicStart new topic
1 User(s) are reading this topic (1 Guests and 0 Anonymous Users)
0 Members:

 



- Lo-Fi Version Support form
Copyrights and abuse reports form
Time is now: 18th June 2018 - 06:36:39