Welcome Guest ( Log In | Register )

> И неформату есть предел.

Рэп/хип-хоп/шансон/поп удаляются. Для них есть свои порталы.

 
ОтветитьСоздать новую тему
> Murgrind - Inheritor Of The Forest Throne (2015), Dungeon Synth/Medieval/Dark Ambient
post Aug 20 2017, 01:25:47
Post #1

Angel Eviscerator
**************
Group: Металариец
Posts: 4,007
Releases: 2684
From: 55°35’N 38°08’E
On Forums: 9 years 7 months
Thanks: 51354 time(s)
Russian Federation


(IMG:http://metalarea.org/images/audiocovers/2017_Aug/acov_tid293303_thumb.jpg)

*Artist: Murgrind
*Album: Inheritor Of The Forest Throne
*Year: 2015
*Genre: Dungeon Synth/Medieval/Dark Ambient
*Country: Germany (IMG:http://metalarea.org/forum/style_images/flags/Germany.png)
*Format: mp3@CBR320kbps
*Size: 140MB

Tracklist:
1.Awakening in an Ancient Realm 06:16
2.Across a Barbarian Village 04:00
3.Far Winds beyond the Mountains 06:34
4.The Northern Oracle 05:44
5.Reach for the Stars 05:21
6.Arrival at the Wooden Gates 08:39
7.Source of Might 08:02
8.Inheritor of the Forest Throne 07:40
9.Leaving alongside the Rivers 04:24
******************************
Total playing time: 56:40



Extended info
+ scans


Technical info
(IMG:http://metalarea.org/images/spectrogram/2017_Aug/eba90bb086131fb7a673cd139fd958ca.png)
Input File: 01 Awakening in an Ancient Realm.mp3
Channels : 2
Sample Rate : 44100
Precision : 16-bit
Duration : 00:06:16.83 = 16618115 samples = 28262.1 CDDA sectors
File Size : 15.2M
Bit Rate : 323k
Sample Encoding: MPEG audio (layer I, II or III)
Comments :
Title=Awakening In An Ancient Realm
Artist=Murgrind
Album=Inheritor Of The Forest Throne
Tracknumber=1
Year=2015
Genre=Other



Register


Вернуться к началу страницы
  Insert nick Quick quote
+Цитировать сообщение

ОтветитьСоздать новую тему
1 User(s) are reading this topic (1 Guests and 0 Anonymous Users)
0 Members:

 



- Lo-Fi Version Support form
Copyrights and abuse reports form
Time is now: 20th February 2018 - 12:55:07