Welcome Guest ( Log In | Register )

> И неформату есть предел.

Рэп/хип-хоп/шансон/поп удаляются. Для них есть свои порталы.

> Galdur - Age Of Legends (2016), Dungeon Synth/Dark Ambient
post Aug 22 2017, 19:31:48
Post #1

Правь статус, ####!616
**************
Group: Металариец
Posts: 4,398
Releases: 3004
From: 55°35’N 38°08’E
On Forums: 9 years 11 months
Thanks: 55882 time(s)
Unknown


(IMG:http://metalarea.org/images/audiocovers/2017_Aug/acov_tid293415_thumb.jpg)

*Artist: Galdur
*Album: Age Of Legends
*Year: 2016
*Genre: Dungeon Synth/Dark Ambient
*Country: Ukraine (IMG:http://metalarea.org/forum/style_images/flags/Ukraine.png)
*Format: mp3@CBR320kbps
*Size: 141MB

Tracklist:
1.Lord of Iron Fortress 11:24
2.Age of Battles 05:16
3.The Nine 07:12
4.Pedo Mellon a Minno 07:28
5.Night of Dancing Trolls 06:23
6.Visions of Ancient Times 06:44
7.A New Dawn 08:38
8.Legend Became Myth 08:40
******************************
Total playing time: 1:01:45



Technical info
(IMG:http://metalarea.org/images/spectrogram/2017_Aug/4b842b98e29c349ff5772099f38f99cf.png)
Input File: 01 Lord of Iron Fortress.mp3
Channels : 2
Sample Rate : 44100
Precision : 16-bit
Duration : 00:11:21.31 = 30045947 samples = 51098.5 CDDA sectors
File Size : 27.4M
Bit Rate : 321k
Sample Encoding: MPEG audio (layer I, II or III)
Comments :
Title=Lord Of Iron Fortress
Artist=Galdur
Album=Age Of Legends
Tracknumber=1
Year=2016
Genre=Other



Register


Go to the top of the page
  Insert nick Quick quote
+Quote Post
 
Start new topic
Replies (1 - 2)
post Aug 24 2017, 13:46:00
Post #2

Русь Понад Усе!
**************
Group: Металариец
Posts: 4,032
Releases: 15
From: Украина
On Forums: 10 years 9 months
Thanks: 1536 time(s)
Ukraine


Залейте плиз на sampo.ru
Go to the top of the page
  Insert nick Quick quote
+Quote Post
post Aug 24 2017, 15:14:53
Post #3

Правь статус, ####!616
**************
Group: Металариец
Posts: 4,398
Releases: 3004
From: 55°35’N 38°08’E
On Forums: 9 years 11 months
Thanks: 55882 time(s)
Unknown


Register


Thanks:
(1) recber,
Go to the top of the page
  Insert nick Quick quote
+Quote Post

Reply to this topicStart new topic
1 User(s) are reading this topic (1 Guests and 0 Anonymous Users)
0 Members:

 



- Lo-Fi Version Support form
Copyrights and abuse reports form
Time is now: 23rd June 2018 - 11:23:45