Welcome Guest ( Log In | Register )

> Crafteon - Cosmic Reawakening (2017), Black Metal
post Aug 24 2017, 13:54:47
Post #1

Правь статус, ####!111
**************
Group: Металариец
Posts: 22,266
Releases: 15420
From: Г.Харьков
On Forums: 8 years 1 month
Thanks: 281840 time(s)
Unknown


(IMG:https://metalarea.org/images/audiocovers/2017_Aug/acov_tid293493_thumb.jpg)

*Artist: Crafteon
*Album: Cosmic Reawakening
*Year: 2017
*Genre: Black Metal
*Country: United States (IMG:https://metalarea.org/forum/style_images/flags/United%20States.png)
*Format: mp3@CBR320kbps
*Size: 100MB

Tracklist:
1. The Outsider
2. What The Moon Brings
3. The Temple
4. Dagon
5. The Colour Out Of Space
6. The White Ship
7. From Beyond
8. The Whisperer In The Darkness
******************************
Total playing time: 43:28



Technical info
(IMG:https://metalarea.org/images/spectrogram/2017_Aug/d1fbb7fc2000b317e0d1af7fa469e829.png)
Input File: 2 - What the Moon Brings.mp3
Channels : 2
Sample Rate : 44100
Precision : 16-bit
Duration : 00:04:14.44 = 11220628 samples = 19082.7 CDDA sectors
File Size : 10.3M
Bit Rate : 323k
Sample Encoding: MPEG audio (layer I, II or III)
Comments :
Title=What the Moon Brings
Artist=Crafteon
Album=Cosmic Reawakening
Tracknumber=2/8
Year=2017



Register


Go to the top of the page
  Insert nick Quick quote
+Quote Post
 
Start new topic
Replies (1 - 5)
post Aug 24 2017, 14:38:25
Post #2

Правь статус, ####!111
**************
Group: Металариец
Posts: 22,266
Releases: 15420
From: Г.Харьков
On Forums: 8 years 1 month
Thanks: 281840 time(s)
Unknown


Register


Go to the top of the page
  Insert nick Quick quote
+Quote Post
post Aug 24 2017, 18:57:34
Post #3

Правь статус, ####!111
**************
Group: Металариец
Posts: 3,064
Releases: 8
From: Dnipro
On Forums: 11 years 11 months
Thanks: 1003 time(s)
Ukraine


Вещь! (IMG:style_emoticons/default/20.gif)
Go to the top of the page
  Insert nick Quick quote
+Quote Post
post Aug 30 2017, 06:09:32
Post #4

Три Литра
***
Group: Завсегдатай
Posts: 243
Releases: 0
From: Vilnius
On Forums: 13 years 4 months
Thanks: 62 time(s)
Lithuania


Спасибо,-понравилось
Go to the top of the page
  Insert nick Quick quote
+Quote Post
post Jun 5 2019, 14:23:40
Post #5

Watch The Water
*********
Group: Металариец
Posts: 945
Releases: 30
On Forums: 13 years 4 months
Thanks: 1290 time(s)
El Salvador


Классные. Слышен павер-митольный бэкграунд участников и даже гот-роковые инфлюенции (What the Moon Brings, например), но оно все в плюс работает, очень слушабельный в результате получается среднетемповый мбм с неортодоксально-фановым (adventurous, хорошее слово) подходом к затасканной диссонансами лавкрафтианской теме в целом. Бас - мое почтение.


Thanks:
(1) judaz,
Go to the top of the page
  Insert nick Quick quote
+Quote Post
post Apr 22 2020, 19:28:14
Post #6

Group: Подсевший
Posts: 38
Releases: 0
From: Москва
On Forums: 6 months 6 days
Thanks: 1 time(s)
Russian Federation


Обновите ссылки, пожалуйста
Go to the top of the page
  Insert nick Quick quote
+Quote Post

Reply to this topicStart new topic
2 User(s) are reading this topic (2 Guests and 0 Anonymous Users)
0 Members:

 



- Lo-Fi Version Support form
Copyrights and abuse reports form
Time is now: 6th July 2020 - 07:02:28