Welcome Guest ( Log In | Register )

> И неформату есть предел.

Рэп/хип-хоп/шансон/поп удаляются. Для них есть свои порталы.

 
ОтветитьСоздать новую тему
> Galdur - Born By Stars And Moon (2013), Dungeon Synth/Dark Ambient
post Aug 24 2017, 15:28:24
Post #1

Angel Eviscerator
**************
Group: Металариец
Posts: 4,007
Releases: 2684
From: 55°35’N 38°08’E
On Forums: 9 years 7 months
Thanks: 51348 time(s)
Russian Federation


(IMG:http://metalarea.org/images/audiocovers/2017_Aug/acov_tid293501_thumb.jpg)

*Artist: Galdur
*Album: Born By Stars And Moon
*Year: 2013
*Genre: Dungeon Synth/Dark Ambient
*Country: Ukraine (IMG:http://metalarea.org/forum/style_images/flags/Ukraine.png)
*Format: mp3@CBR320kbps
*Size: 91MB

Tracklist:
1.Born by Stars and Moon 12:12
2.The Heart of Mountain 07:34
3.Great Halls Of Khazad Dum 10:18
4.Into the Lands Unknown 11:27
******************************
Total playing time: 41:31



Extended info
FLAC-RIP


Technical info
(IMG:http://metalarea.org/images/spectrogram/2017_Aug/6f3f39dd6d904fea7d3405e4d9c33cff.png)
Input File: 02 The Heart Of Mountain.mp3
Channels : 2
Sample Rate : 44100
Precision : 16-bit
Duration : 00:07:34.99 = 20065235 samples = 34124.5 CDDA sectors
File Size : 18.3M
Bit Rate : 321k
Sample Encoding: MPEG audio (layer I, II or III)
Comments :
Title=The Heart Of Mountain
Artist=Galdur
Album=Born By Stars And Moon
Tracknumber=2
Year=2013
Genre=Other



Register


Вернуться к началу страницы
  Insert nick Quick quote
+Цитировать сообщение

ОтветитьСоздать новую тему
1 User(s) are reading this topic (1 Guests and 0 Anonymous Users)
0 Members:

 



- Lo-Fi Version Support form
Copyrights and abuse reports form
Time is now: 20th February 2018 - 00:55:14