Welcome Guest ( Log In | Register )

> И неформату есть предел.

Рэп/хип-хоп/шансон/поп удаляются. Для них есть свои порталы.

> Justinhate - Marrow (2017), Dark Metallic Hardcore
post Aug 24 2017, 17:17:00
Post #1

Правь статус, ####!111
**************
Group: Металариец
Posts: 3,497
Releases: 1811
From: Земля
On Forums: 4 years 3 months
Thanks: 9754 time(s)
Russian Federation


(IMG:https://metalarea.org/images/audiocovers/2017_Aug/acov_tid293510_thumb.jpg)

*Artist: Justinhate
*Album: Marrow
*Year: 2017
*Genre: Dark Metallic Hardcore
*Country: Denmark (IMG:https://metalarea.org/forum/style_images/flags/Denmark.png)
*Format: mp3@CBR320kbps
*Size: 86MB

Tracklist:
1. Infantem 03:59
2. Ignis 03:41
3. Wittenoom 04:13
4. Apostasy 03:15
5. Evigheden skal knuses 04:24
6. Apophis 03:44
7. Nepenthe 02:48
8. Marrow 03:32
9. Cloacina 03:17
10. Nyctophilia 04:10
******************************
Total playing time: 37:03



Technical info
(IMG:https://metalarea.org/images/spectrogram/2017_Aug/48dfb7748e3bfeec9d3910c8638e06bb.png)
Input File: JUSTINHATE - 1 Infantem.mp3
Channels : 2
Sample Rate : 44100
Precision : 16-bit
Duration : 00:03:59.95 = 10581575 samples = 17995.9 CDDA sectors
File Size : 9.72M
Bit Rate : 324k
Sample Encoding: MPEG audio (layer I, II or III)
Comments :
Title=Infantem
Artist=JUSTINHATE
Album=Marrow
Tracknumber=1/10
Year=2017



Register


Go to the top of the page
  Insert nick Quick quote
+Quote Post
 
Start new topic
Replies (1 - 1)
post Aug 27 2017, 16:27:34
Post #2

Все люди - черви.
**********
Group: Металариец
Posts: 1,019
Releases: 118
From: Пхёнъян, Северная Корея
On Forums: 5 years 5 months
Thanks: 3671 time(s)
North Korea


На BC прогнал пару треков, вроде годно, надо ознакомиться целиком с альбомом.
Go to the top of the page
  Insert nick Quick quote
+Quote Post

Reply to this topicStart new topic
1 User(s) are reading this topic (1 Guests and 0 Anonymous Users)
0 Members:

 



- Lo-Fi Version Support form
Copyrights and abuse reports form
Time is now: 23rd June 2018 - 11:24:43