Welcome Guest ( Log In | Register )

> И неформату есть предел.

Рэп/хип-хоп/шансон/поп удаляются. Для них есть свои порталы.

> Nasgûl - Ash Nazg Durbatulûk... [demo] (1996), Dungeon Synth/Medieval
post Aug 24 2017, 19:23:58
Post #1

Angel Eviscerator
**************
Group: Металариец
Posts: 4,007
Releases: 2684
From: 55°35’N 38°08’E
On Forums: 9 years 7 months
Thanks: 51354 time(s)
Russian Federation


(IMG:http://metalarea.org/images/audiocovers/2017_Aug/acov_tid293520_thumb.jpg)

*Artist: Nasgûl
*Album: Ash Nazg Durbatulûk... [demo]
*Year: 1996
*Genre: Dungeon Synth/Medieval
*Country: Germany (IMG:http://metalarea.org/forum/style_images/flags/Germany.png)
*Format: mp3@CBR320kbps
*Size: 61MB

Tracklist:
1.Intro 01:46
2.Ritt der Rohirrim - Storming Gandalf 05:17
3.Boromirs Begräbnis 06:46
4.Orkmarsch 03:53
5.In den Hallen von Moria 03:59
6.Vergangenheit 02:28
7.Outro 03:06
******************************
Total playing time: 27:15



Technical info
(IMG:http://metalarea.org/images/spectrogram/2017_Aug/4a5243b58cd4ab94a106567d1ffcdc94.png)
Input File: 02 Ritt der Rohirrim - Storming Gandalf.mp3
Channels : 2
Sample Rate : 44100
Precision : 16-bit
Duration : 00:05:15.98 = 13934850 samples = 23698.7 CDDA sectors
File Size : 12.8M
Bit Rate : 324k
Sample Encoding: MPEG audio (layer I, II or III)
Comments :
Title=Ritt Der Rohirrim - Storming Gandalf
Artist=NasgГ»l
Album=Ash Nazg DurbatulГ»k...
Tracknumber=2
Year=1996
Genre=Dungeon Synth



Register


Вернуться к началу страницы
  Insert nick Quick quote
+Цитировать сообщение
 
Создать новую тему
Replies (1 - 2)
post Aug 24 2017, 21:01:39
Post #2

Три Литра
***
Group: Завсегдатай
Posts: 225
Releases: 1
On Forums: 8 years 5 months
Thanks: 68 time(s)
Unknown


Еще как формат
Вернуться к началу страницы
  Insert nick Quick quote
+Цитировать сообщение
post Aug 24 2017, 22:20:30
Post #3

Dark Ambient Shoujo
*********
Group: Металариец
Posts: 948
Releases: 1
On Forums: 9 years 1 month
Thanks: 452 time(s)
Russian Federation


На БК чиптюн немношк.
Вернуться к началу страницы
  Insert nick Quick quote
+Цитировать сообщение

ОтветитьСоздать новую тему
1 User(s) are reading this topic (1 Guests and 0 Anonymous Users)
0 Members:

 



- Lo-Fi Version Support form
Copyrights and abuse reports form
Time is now: 20th February 2018 - 12:57:14