Welcome Guest ( Log In | Register )

> И неформату есть предел.

Рэп/хип-хоп/шансон/поп удаляются. Для них есть свои порталы.

> Nasgûl - Ash Nazg Durbatulûk... [demo] (1996), Dungeon Synth/Medieval
post Aug 24 2017, 19:23:58
Post #1

Правь статус, ####!616
**************
Group: Металариец
Posts: 4,392
Releases: 3000
From: 55°35’N 38°08’E
On Forums: 9 years 11 months
Thanks: 55760 time(s)
Unknown


(IMG:http://metalarea.org/images/audiocovers/2017_Aug/acov_tid293520_thumb.jpg)

*Artist: Nasgûl
*Album: Ash Nazg Durbatulûk... [demo]
*Year: 1996
*Genre: Dungeon Synth/Medieval
*Country: Germany (IMG:http://metalarea.org/forum/style_images/flags/Germany.png)
*Format: mp3@CBR320kbps
*Size: 61MB

Tracklist:
1.Intro 01:46
2.Ritt der Rohirrim - Storming Gandalf 05:17
3.Boromirs Begräbnis 06:46
4.Orkmarsch 03:53
5.In den Hallen von Moria 03:59
6.Vergangenheit 02:28
7.Outro 03:06
******************************
Total playing time: 27:15



Technical info
(IMG:http://metalarea.org/images/spectrogram/2017_Aug/4a5243b58cd4ab94a106567d1ffcdc94.png)
Input File: 02 Ritt der Rohirrim - Storming Gandalf.mp3
Channels : 2
Sample Rate : 44100
Precision : 16-bit
Duration : 00:05:15.98 = 13934850 samples = 23698.7 CDDA sectors
File Size : 12.8M
Bit Rate : 324k
Sample Encoding: MPEG audio (layer I, II or III)
Comments :
Title=Ritt Der Rohirrim - Storming Gandalf
Artist=NasgГ»l
Album=Ash Nazg DurbatulГ»k...
Tracknumber=2
Year=1996
Genre=Dungeon Synth



Register


Go to the top of the page
  Insert nick Quick quote
+Quote Post
 
Start new topic
Replies (1 - 2)
post Aug 24 2017, 21:01:39
Post #2

Три Литра
***
Group: Завсегдатай
Posts: 242
Releases: 1
On Forums: 8 years 9 months
Thanks: 72 time(s)
Unknown


Еще как формат
Go to the top of the page
  Insert nick Quick quote
+Quote Post
post Aug 24 2017, 22:20:30
Post #3

Dark Ambient Shoujo
*********
Group: Металариец
Posts: 978
Releases: 1
On Forums: 9 years 5 months
Thanks: 479 time(s)
Russian Federation


На БК чиптюн немношк.
Go to the top of the page
  Insert nick Quick quote
+Quote Post

Reply to this topicStart new topic
1 User(s) are reading this topic (1 Guests and 0 Anonymous Users)
0 Members:

 



- Lo-Fi Version Support form
Copyrights and abuse reports form
Time is now: 18th June 2018 - 06:35:52