Welcome Guest ( Log In | Register )

> И неформату есть предел.

Рэп/хип-хоп/шансон/поп удаляются. Для них есть свои порталы.

 
Reply to this topicStart new topic
> Arden - A Journey Through Darkness [demo] (1997), Dungeon Synth/Dark Ambient
post Aug 24 2017, 19:51:47
Post #1

Правь статус, ####!616
**************
Group: Металариец
Posts: 4,398
Releases: 3004
From: 55°35’N 38°08’E
On Forums: 9 years 11 months
Thanks: 55882 time(s)
Unknown


(IMG:http://metalarea.org/images/audiocovers/2017_Aug/acov_tid293521_thumb.jpg)

*Artist: Arden
*Album: A Journey Through Darkness [demo]
*Year: 1997
*Genre: Dungeon Synth/Dark Ambient
*Country: France (IMG:http://metalarea.org/forum/style_images/flags/France.png)
*Format: mp3@CBR320kbps
*Size: 101MB

Tracklist:
1.Towards the Black Castle 08:20
2.Nachtlied 05:06
3.The Circle of Chaos 05:35
4.Dark Cosmos 09:38
5.Outro 01:33
******************************
Total playing time: 30:12



Technical info
(IMG:http://metalarea.org/images/spectrogram/2017_Aug/bd105bb1735509c9c46ec04457568da3.png)
Input File: 01 Towards the Black Castle.mp3
Channels : 2
Sample Rate : 44100
Precision : 16-bit
Duration : 00:08:20.74 = 22082590 samples = 37555.4 CDDA sectors
File Size : 20.1M
Bit Rate : 321k
Sample Encoding: MPEG audio (layer I, II or III)
Comments :
Title=Towards the Black Castle
Artist=Arden
Album=A Journey through Darkness (demo tape 1997)
Tracknumber=1
Year=1997



Register


Go to the top of the page
  Insert nick Quick quote
+Quote Post

Reply to this topicStart new topic
1 User(s) are reading this topic (1 Guests and 0 Anonymous Users)
0 Members:

 



- Lo-Fi Version Support form
Copyrights and abuse reports form
Time is now: 23rd June 2018 - 11:24:58