Welcome Guest ( Log In | Register )

> И неформату есть предел.

Рэп/хип-хоп/шансон/поп удаляются. Для них есть свои порталы.

 
ОтветитьСоздать новую тему
> Laparoscopic Resection Of An Undifferentiated Pleomorphic Splenic Sarcoma - Demo [demo] (2017), Gorenoise
post Aug 25 2017, 07:01:46
Post #1

0,5 минералки и шоколадка
**************
Group: Металариец
Posts: 2,778
Releases: 118
From: Karelia/SPB
On Forums: 8 years 9 months
Thanks: 3684 time(s)
NATO


(IMG:http://metalarea.org/images/audiocovers/2017_Aug/acov_tid293532_thumb.jpg)

*Artist: Laparoscopic Resection Of An Undifferentiated Pleomorphic Splenic Sarcoma
*Album: Demo [demo]
*Year: 2017
*Genre: Gorenoise
*Country: New Zealand (IMG:http://metalarea.org/forum/style_images/flags/New%20Zealand.png)
*Format: mp3@CBR320kbps
*Size: 8MB

Tracklist:
01. Untitled
******************************
Total playing time: 3:15



Technical info
(IMG:http://metalarea.org/images/spectrogram/2017_Aug/99073fa7841d562a12ed15e5eb6111d2.png)
Input File: Laparoscopic Resection of an Undifferentiated Pleomorphic Splenic Sarcoma - Demo - 01 Untitled.mp3
Channels : 2
Sample Rate : 44100
Precision : 16-bit
Duration : 00:03:15.57 = 8624637 samples = 14667.8 CDDA sectors
File Size : 7.94M
Bit Rate : 325k
Sample Encoding: MPEG audio (layer I, II or III)
Comments :
Title=Untitled
Artist=Laparoscopic Resection of an Undifferentiated Pleomorphic Splenic Sarcoma
Album=Demo
Tracknumber=1
Year=2017



Register
Вернуться к началу страницы
  Insert nick Quick quote
+Цитировать сообщение

ОтветитьСоздать новую тему
1 User(s) are reading this topic (1 Guests and 0 Anonymous Users)
0 Members:

 



- Lo-Fi Version Support form
Copyrights and abuse reports form
Time is now: 20th February 2018 - 12:57:52