Welcome Guest ( Log In | Register )

> И неформату есть предел.

Рэп/хип-хоп/шансон/поп удаляются. Для них есть свои порталы.

> Ghost - He Is [single] (2017), Occult Rock
post Aug 25 2017, 11:48:17
Post #1

Аннигилятор пивА
Group Icon
Group: V.I.P
Posts: 46,863
Releases: 14079
From: Koenigsberg - TILZIT
On Forums: 12 years 3 weeks
Thanks: 312377 time(s)
Russian Federation


(IMG:http://metalarea.org/images/audiocovers/2017_Aug/acov_tid293548_thumb.jpg)

*Artist: Ghost
*Album: He Is [single]
*Year: 2017
*Genre: Occult Rock
*Country: Sweden (IMG:http://metalarea.org/forum/style_images/flags/Sweden.png)
*Format: mp3@CBR320kbps
*Size: 40MB

Tracklist:
01. He Is (Live In San Francisco)
02. He Is (feat. Alison Mosshart)
03. He Is (HEALTH Remix)
04. He Is (The Haxan Cloak Remix)
******************************
Total playing time: 18:27



Extended info


Technical info
(IMG:http://metalarea.org/images/spectrogram/2017_Aug/f6f0d19270ef82eebc42bc41becc0baa.png)
Input File: 02. He Is (feat. Alison Mosshart).mp3
Channels : 2
Sample Rate : 44100
Precision : 16-bit
Duration : 00:03:53.50 = 10297526 samples = 17512.8 CDDA sectors
File Size : 9.41M
Bit Rate : 322k
Sample Encoding: MPEG audio (layer I, II or III)
Comments :
Title=He Is (feat. Alison Mosshart)
Artist=Ghost
Album=He Is
Tracknumber=2
Genre=п»їР РѕРє
Discnumber=1



Register


Go to the top of the page
  Insert nick Quick quote
+Quote Post
 
Start new topic
Replies (1 - 4)
post Aug 25 2017, 15:31:39
Post #2

Аннигилятор пивА
Group Icon
Group: V.I.P
Posts: 46,863
Releases: 14079
From: Koenigsberg - TILZIT
On Forums: 12 years 3 weeks
Thanks: 312377 time(s)
Russian Federation


интересно, альбом в таком стиле будет?
Go to the top of the page
  Insert nick Quick quote
+Quote Post
post Aug 25 2017, 16:20:16
Post #3

Пять Литров
*****
Group: Металариец
Posts: 449
Releases: 0
On Forums: 10 years 6 months
Thanks: 335 time(s)
Ukraine


Проект удивительный. Так то спокойно отношусь, но есть треки совершенно бомбические. Этот не исключение, пора собственный же бест делать.
Go to the top of the page
  Insert nick Quick quote
+Quote Post
post Aug 25 2017, 16:33:03
Post #4

Аннигилятор пивА
Group Icon
Group: V.I.P
Posts: 46,863
Releases: 14079
From: Koenigsberg - TILZIT
On Forums: 12 years 3 weeks
Thanks: 312377 time(s)
Russian Federation


жена ща услыхала, уволокла к себе клип (IMG:style_emoticons/default/crazy.gif) где говорит альбом скачать


Thanks:
(1) MeatWolf,
Go to the top of the page
  Insert nick Quick quote
+Quote Post
post Aug 25 2017, 16:40:59
Post #5

Попсовик от брутала
**************
Group: Металариец
Posts: 5,938
Releases: 56
From: Минск
On Forums: 9 years 6 months
Thanks: 4796 time(s)
Belarus


Песня, конечно, шикарная. Из тех, которые непонятно каким чудом не были написаны лет тридцать назад - мелодия словно обречена стать классикой. Но обидно, что GHOST способны (способен) теперь только по одному такому хиту на альбом рожать, скорее всего.
Go to the top of the page
  Insert nick Quick quote
+Quote Post

Reply to this topicStart new topic
1 User(s) are reading this topic (1 Guests and 0 Anonymous Users)
0 Members:

 



- Lo-Fi Version Support form
Copyrights and abuse reports form
Time is now: 23rd June 2018 - 11:22:09