Welcome Guest ( Log In | Register )

> И неформату есть предел.

Рэп/хип-хоп/шансон/поп удаляются. Для них есть свои порталы.

 
Reply to this topicStart new topic
> Dulldog - The King Of Russia (2017), Alternative/Industrial Metal
post Aug 26 2017, 14:08:16
Post #1

Group: Подсевший
Posts: 39
Releases: 14
From: metalarea
On Forums: 10 years 3 months
Thanks: 196 time(s)
Slovenia


(IMG:http://metalarea.org/images/audiocovers/2017_Aug/acov_tid293618_thumb.jpg)

*Artist: Dulldog
*Album: The King Of Russia
*Year: 2017
*Genre: Alternative/Industrial Metal
*Country: Russian Federation (IMG:http://metalarea.org/forum/style_images/flags/Russian%20Federation.png)
*Format: mp3@CBR320kbps
*Size: 82MB

Tracklist:
1. Bold Little Dwarf
2. King Of Russia
3. Dance No More
4. Stupid Motherfuckers
5. Wolf Sinne
6. Spiritus Vitae
7. One Day
8. Dull World
9. Zero
10. Reckless
******************************
Total playing time: 35:53

Technical info
(IMG:http://metalarea.org/images/spectrogram/2017_Aug/082dd176a4e150cbc20357bf6e8ee67f.png)
Input File: 01 - Bold Little Dwarf.mp3
Channels : 2
Sample Rate : 44100
Precision : 16-bit
Duration : 00:03:27.26 = 9140078 samples = 15544.4 CDDA sectors
File Size : 8.29M
Bit Rate : 320k
Sample Encoding: MPEG audio (layer I, II or III)
Comments :
Title=Bold Little Dwarf
Artist=Dulldog
Album=The King Of Russia
Tracknumber=1
Year=2017
Genre=20



Register


Thanks:
Go to the top of the page
  Insert nick Quick quote
+Quote Post

Reply to this topicStart new topic
1 User(s) are reading this topic (1 Guests and 0 Anonymous Users)
0 Members:

 



- Lo-Fi Version Support form
Copyrights and abuse reports form
Time is now: 23rd June 2018 - 11:21:41