Welcome Guest ( Log In | Register )

> Terminus - Tomb Of Infamy [best of/compilation] (2017), Death Metal (D8)
post Aug 26 2017, 17:38:45
Post #1

Пять Литров
*****
Group: Металариец
Posts: 421
Releases: 21
On Forums: 11 years 9 months
Thanks: 445 time(s)
Germany


(IMG:https://metalarea.org/images/audiocovers/2017_Aug/acov_tid293628_thumb.jpg)

*Artist: Terminus
*Album: Tomb Of Infamy [best of/compilation]
*Year: 2017
*Genre: Death Metal
*Country: United States (IMG:https://metalarea.org/forum/style_images/flags/United%20States.png)
*Format: mp3@CBR320kbps
*Size: 167MB

Tracklist:
1. Tomb of Infamy 06:06
2. Lycanthrope 07:01
3. Painted Reality 02:56
4. The Horrid Remains 04:10
5. Awakened 05:18
6. Necropolis 08:49
7. Isolate the Sick 05:21
8. One Called Sleep 06:48
9. Killing Through Chemistry 05:55
10. Age of Ordung 06:05
11. Creations 04:58
12. Beso de la arana 04:07
13. Life Beyond 05:53
******************************
Total playing time: 1:13:27

Extended info
1-6 recorded at Pus Cavern in the winter of 1996
7-13 recorded at Pus Cavern in the autumn of 1994 ("Creations" record)


Technical info
(IMG:https://metalarea.org/images/spectrogram/2017_Aug/006a90687cf3e5e8f8a9bd6d23506f97.png)
Input File: Terminus - 03 - Painted Reality.mp3
Channels : 2
Sample Rate : 44100
Precision : 16-bit
Duration : 00:02:56.09 = 7765745 samples = 13207 CDDA sectors
File Size : 7.04M
Bit Rate : 320k
Sample Encoding: MPEG audio (layer I, II or III)
Comments :
Title=Painted Reality
Artist=Terminus
Album=Tomb Of Infamy
Tracknumber=3/13
Year=2017
Genre=Death Metal



Register


Go to the top of the page
  Insert nick Quick quote
+Quote Post
 
Start new topic
Replies (1 - 1)
post Aug 26 2017, 19:21:53
Post #2

Morbid Angel
**************
Group: Металариец
Posts: 4,166
Releases: 0
From: Литва г.Клайпеда
On Forums: 12 years 4 months
Thanks: 1773 time(s)
Lithuania




Thanks:
Go to the top of the page
  Insert nick Quick quote
+Quote Post

Reply to this topicStart new topic
2 User(s) are reading this topic (2 Guests and 0 Anonymous Users)
0 Members:

 



- Lo-Fi Version Support form
Copyrights and abuse reports form
Time is now: 17th July 2019 - 07:20:30