Welcome Guest ( Log In | Register )

> SHC - SHC [ep] (2017), Psychedelic/Stoner/Doom Metal
post Aug 28 2017, 23:58:32
Post #1

Аннигилятор пивА
Group Icon
Group: V.I.P
Posts: 52,360
Releases: 16551
From: Koenigsberg - TILZIT
On Forums: 13 years 8 months
Thanks: 363866 time(s)
Russian Federation


(IMG:https://metalarea.org/images/audiocovers/2017_Aug/acov_tid293733_thumb.jpg)

*Artist: SHC
*Album: SHC [ep]
*Year: 2017
*Genre: Psychedelic/Stoner/Doom Metal
*Country: Portugal (IMG:https://metalarea.org/forum/style_images/flags/Portugal.png)
*Format: mp3@CBR320kbps
*Size: 88MB

Tracklist:
1. Nothingness 06:55
2. Summoning Up Philip 08:22
3. Nutant 04:42
4. The Burning 07:05
5. Beyond the Mind 11:22
******************************
Total playing time: 38:26




Technical info
(IMG:https://metalarea.org/images/spectrogram/2017_Aug/4c00c6c1f7bc3998b36b89d7e90b85c3.png)
Input File: 03 Nutant.mp3
Channels : 2
Sample Rate : 44100
Precision : 16-bit
Duration : 00:04:42.28 = 12448504 samples = 21170.9 CDDA sectors
File Size : 11.4M
Bit Rate : 323k
Sample Encoding: MPEG audio (layer I, II or III)
Comments :
Title=Nutant
Artist=SHC
Album=SHC
Tracknumber=3
Year=2017



Register


Go to the top of the page
  Insert nick Quick quote
+Quote Post
 
Start new topic
Replies (1 - 3)
post Aug 29 2017, 10:53:08
Post #2

Правь статус, ####!111
**************
Group: Металариец
Posts: 44,974
Releases: 695
On Forums: 10 years 7 months
Thanks: 36507 time(s)
Russian Federation


Если качать через бэндкамп, то получается что 320 там будет весить 141 метр, а не 88, как здесь. В чем прикол? (IMG:style_emoticons/default/hmm.gif)
Go to the top of the page
  Insert nick Quick quote
+Quote Post
post Aug 29 2017, 15:56:49
Post #3

Восемь Литров
********
Group: Металариец
Posts: 803
Releases: 0
From: Черкассы
On Forums: 8 years 1 month
Thanks: 111 time(s)
Ukraine


ЦИТАТА(vosmidesijatye @ 29th August 2017 - 10:53:08) *
В чем прикол?

Часто из-за отредактироваванных "лишних" тегов,(лишней информации) уменьшаеться размер,не скачивал,только ознакомился (IMG:style_emoticons/default/hmm.gif)
Полное время альбома: 38:26 так-же неплохой ориентир


Thanks:
Go to the top of the page
  Insert nick Quick quote
+Quote Post
post Aug 31 2017, 19:23:42
Post #4

Правь статус, ####!111
**************
Group: Металариец
Posts: 44,974
Releases: 695
On Forums: 10 years 7 months
Thanks: 36507 time(s)
Russian Federation


Угашенный в нули просто отменный на 90% инструментальный стоунер дум с лидирующей гитарой, выдающий класснючие продолжительные психоделические кислотные пассажи. В третьем трэке нагло с___нный с Электрик Визардовского Витчкалт Тудей риффак. Но даже это не портит общего впечатления от прослушивания.
Go to the top of the page
  Insert nick Quick quote
+Quote Post

Reply to this topicStart new topic
1 User(s) are reading this topic (1 Guests and 0 Anonymous Users)
0 Members:

 



- Lo-Fi Version Support form
Copyrights and abuse reports form
Time is now: 29th January 2020 - 10:25:24