Welcome Guest ( Log In | Register )

 
Reply to this topicStart new topic
> Bethor - Potonja (2006), Raw Black Metal/Noise
post Aug 29 2017, 23:54:00
Post #1

Пять Литров
*****
Group: Металариец
Posts: 457
Releases: 84
On Forums: 9 years 3 months
Thanks: 1907 time(s)
Serbia


(IMG:http://metalarea.org/images/audiocovers/2017_Aug/acov_tid293774.jpeg)

*Artist: Bethor
*Album: Potonja
*Year: 2006
*Genre: Raw Black Metal/Noise
*Country: Serbia (IMG:http://metalarea.org/forum/style_images/flags/Serbia.png)
*Format: mp3@CBR320kbps
*Size: 181MB

Tracklist:
1. Invocation...(Intro)
2. Potonja
3. Vasta Deus Regna
4. Equimanthorn (Bathory cover)
5. Born of No Mother
6. Upon the Hour of Noon
7. Clangui De Blasphemia
8. Fish (Beherit cover)
9. Arathron
10. Miseruit Conplexus Obcurus
11. Daku Lad
12. Stab Through the Heart
13. ...Sabai Infernum (Outro)
******************************
Total playing time: 1:02:47


Extended info
This upload comes with live video that was on the album.


Technical info
(IMG:http://metalarea.org/images/spectrogram/2017_Aug/698e8086c1f767e7e0c5c69ee3738735.png)
Input File: 01 Bethor - Welcome To The Infernal Kingdom (Intro).mp3
Channels : 2
Sample Rate : 44100
Precision : 16-bit
Duration : 00:04:17.12 = 11339168 samples = 19284.3 CDDA sectors
File Size : 10.3M
Bit Rate : 320k
Sample Encoding: MPEG audio (layer I, II or III)
Comments :
Title=Welcome To The Infernal Kingdom (Intro)
Artist=Bethor
Album=Potonja
Tracknumber=1
Year=2006
Genre=Black Metal, Noise



Register


Go to the top of the page
  Insert nick Quick quote
+Quote Post

Reply to this topicStart new topic
1 User(s) are reading this topic (1 Guests and 0 Anonymous Users)
0 Members:

 



- Lo-Fi Version Support form
Copyrights and abuse reports form
Time is now: 4th February 2023 - 16:47:28