Welcome Guest ( Log In | Register )

> И неформату есть предел.

Рэп/хип-хоп/шансон/поп удаляются. Для них есть свои порталы.

> Maðr Er Moldar Auki - Maðr Er Moldar Auki (2012), Dark Ambient/Acoustic Folk
post Aug 30 2017, 05:21:18
Post #1

Angel Eviscerator
**************
Group: Металариец
Posts: 4,018
Releases: 2695
From: 55°35’N 38°08’E
On Forums: 9 years 7 months
Thanks: 51479 time(s)
Russian Federation


(IMG:http://metalarea.org/images/audiocovers/2017_Aug/acov_tid293778_thumb.jpg)

*Artist: Maðr Er Moldar Auki
*Album: Maðr Er Moldar Auki
*Year: 2012
*Genre: Dark Ambient/Acoustic Folk
*Country: Italy (IMG:http://metalarea.org/forum/style_images/flags/Italy.png)
*Format: mp3@CBR320kbps
*Size: 102MB

Tracklist:
1.Schnee 06:07
2.Føðesk Ulfr I Skóge 03:19
3.Reginn Sló Sværðet Bæzta 03:15
4.Felsen 08:10
5.Vi Døde Ikke... Vi Har Aldri Levd 04:00
6.Nøktan Kælr I Froste 03:06
7.Blant Skogens Syngende Traer 05:17
8.Maðr Er Moldar Auki 04:21
9.Eis 07:04
******************************
Total playing time: 44:39

(IMG:http://metalarea.org/images/youtube.png)


Extended info
Pro-CDr, Svartkirke Records (Limited to 33 copies.)


Technical info
(IMG:http://metalarea.org/images/spectrogram/2017_Aug/79db140af6a8c5de152e31b02081f9f0.png)
Input File: 02 F??esk Ulfr I Sk?ge.mp3
Channels : 2
Sample Rate : 44100
Precision : 16-bit
Duration : 00:03:19.94 = 8817222 samples = 14995.3 CDDA sectors
File Size : 8.06M
Bit Rate : 323k
Sample Encoding: MPEG audio (layer I, II or III)
Comments :
Title=FГёГ°esk Ulfr I SkГіge
Artist=MaГ°r Er Moldar Auki
Album=MaГ°r Er Moldar Auki
Tracknumber=2
Year=2012
Genre=Ambient



Register


Вернуться к началу страницы
  Insert nick Quick quote
+Цитировать сообщение
 
Создать новую тему
Replies (1 - 1)
post Oct 25 2017, 17:25:47
Post #2

ретроград
**************
Group: Металариец
Posts: 4,185
Releases: 175
On Forums: 10 years 8 months
Thanks: 6124 time(s)
Vatican City


Ну и скукатища
Вернуться к началу страницы
  Insert nick Quick quote
+Цитировать сообщение

ОтветитьСоздать новую тему
1 User(s) are reading this topic (1 Guests and 0 Anonymous Users)
0 Members:

 



- Lo-Fi Version Support form
Copyrights and abuse reports form
Time is now: 25th February 2018 - 08:20:30