Welcome Guest ( Log In | Register )

> Herxsebet - Ad Bellum (2016), Raw Black Metal
post Aug 31 2017, 13:46:48
Post #1
BAN
Banned till
Jul 5 2291, 15:15:40



(IMG:https://metalarea.org/images/audiocovers/2017_Aug/acov_tid293838_thumb.jpg)

*Artist: Herxsebet
*Album: Ad Bellum
*Year: 2016
*Genre: Raw Black Metal
*Country: Mexico (IMG:https://metalarea.org/forum/style_images/flags/Mexico.png)
*Format: mp3@CBR320kbps
*Size: 60MB

Tracklist:
1. Intro
2. Et Recenti Scelere
3. Morts Ynvides Vita
4. Mars de Ordas Vampiriques
5. Desentierro (Retrato Negligente)
6. Opus Veritas Quod Morbus
7. La Mesnada
8. Ad Bellum
9. Untitled (Hidden Track)
******************************
Total playing time: 27:16

Technical info
(IMG:https://metalarea.org/images/spectrogram/2017_Aug/298e8f8b3bdd16bff36aa2354fddfbc7.png)
Input File: A2-Et Recenti Scelere.mp3
Channels : 2
Sample Rate : 44100
Precision : 16-bit
Duration : 00:02:00.67 = 5321547 samples = 9050.25 CDDA sectors
File Size : 4.83M
Bit Rate : 320k
Sample Encoding: MPEG audio (layer I, II or III)



Register


Go to the top of the page
  Insert nick Quick quote
+Quote Post
 
Start new topic
Replies (1 - 3)
post Aug 31 2017, 14:59:37
Post #2

the faceless one
Group Icon
Group: S-moderation team
Posts: 9,342
Releases: 1926
On Forums: 11 years 11 months
Thanks: 115420 time(s)
Russian Federation


Register


Go to the top of the page
  Insert nick Quick quote
+Quote Post
post Dec 2 2017, 23:39:12
Post #3

Group: Дух
Posts: 1
Releases: 0
On Forums: 2 years 8 months
Thanks: 0 time(s)
Chile


Link is dead.


Does anyone have some DIMREVENANT demos?

Thanks.
Go to the top of the page
  Insert nick Quick quote
+Quote Post
post Aug 1 2020, 22:46:15
Post #4

Group: Подсевший
Posts: 27
Releases: 0
On Forums: 5 months 1 week
Thanks: 29 time(s)
Portugal


Register


Thanks:
Go to the top of the page
  Insert nick Quick quote
+Quote Post

Reply to this topicStart new topic
2 User(s) are reading this topic (2 Guests and 0 Anonymous Users)
0 Members:

 



- Lo-Fi Version Support form
Copyrights and abuse reports form
Time is now: 3rd August 2020 - 09:59:28