Welcome Guest ( Log In | Register )

> Night - Raft Of The World (2017), Heavy Metal (D8)
post Aug 31 2017, 15:23:44
Post #1

Правь статус, ####!111
**************
Group: Металариец
Posts: 23,143
Releases: 16143
From: Г.Харьков
On Forums: 8 years 4 months
Thanks: 300347 time(s)
Unknown


(IMG:https://metalarea.org/images/audiocovers/2017_Aug/acov_tid293845_thumb.jpg)

*Artist: Night
*Album: Raft Of The World
*Year: 2017
*Genre: Heavy Metal
*Country: Sweden (IMG:https://metalarea.org/forum/style_images/flags/Sweden.png)
*Format: mp3@CBR320kbps
*Size: 90MB

Tracklist:
1. Fire Across the Sky
2. Surrender
3. Under the Gallows
4. Omberg
5. Time
6. Strike of Lightning
7. Winds
8. Coin in a Fountain
9. Where Silence Awaits
******************************
Total playing time: 42:54

Preview 1


Technical info
(IMG:https://metalarea.org/images/spectrogram/2017_Aug/e2c3cbb6a6411563f7d3d740cd81a7e3.png)
Input File: 03 Under the Gallows.mp3
Channels : 2
Sample Rate : 44100
Precision : 16-bit
Duration : 00:04:21.64 = 11538500 samples = 19623.3 CDDA sectors
File Size : 10.5M
Bit Rate : 321k
Sample Encoding: MPEG audio (layer I, II or III)
Comments :
Title=Under the Gallows
Artist=Night
Album=Raft of the World
Tracknumber=3/9
Year=2017
Genre=17
Discnumber=1/1



Register


Go to the top of the page
  Insert nick Quick quote
+Quote Post
 
Start new topic
Replies (1 - 5)
post Aug 31 2017, 17:29:47
Post #2

Правь статус, ####!111
**************
Group: Металариец
Posts: 23,143
Releases: 16143
From: Г.Харьков
On Forums: 8 years 4 months
Thanks: 300347 time(s)
Unknown


Register


Go to the top of the page
  Insert nick Quick quote
+Quote Post
post Aug 31 2017, 17:57:38
Post #3

Перевозчик
**************
Group: Металариец
Posts: 3,183
Releases: 0
On Forums: 12 years 2 months
Thanks: 718 time(s)
Russian Federation


Go to the top of the page
  Insert nick Quick quote
+Quote Post
post Aug 31 2017, 18:48:44
Post #4

MDM-Thrash Metal
**************
Group: Металариец
Posts: 9,850
Releases: 1048
From: Одесса
On Forums: 13 years 1 month
Thanks: 25992 time(s)
Ukraine


Go to the top of the page
  Insert nick Quick quote
+Quote Post
post Aug 31 2017, 19:35:00
Post #5

кручу наждак
**************
Group: Металариец
Posts: 4,569
Releases: 102
From: Самара
On Forums: 10 years 4 months
Thanks: 3656 time(s)
Russian Federation


Лучше б это были блэкушные французы


Thanks:
Go to the top of the page
  Insert nick Quick quote
+Quote Post
post Sep 16 2020, 11:59:08
Post #6

Group Icon
Group: S-moderation team
Posts: 16,670
Releases: 1441
From: Zagreb
On Forums: 9 years 6 months
Thanks: 75605 time(s)
Croatia


Register


Thanks:
(1) hallowed,
Go to the top of the page
  Insert nick Quick quote
+Quote Post

Reply to this topicStart new topic
1 User(s) are reading this topic (1 Guests and 0 Anonymous Users)
0 Members:

 



- Lo-Fi Version Support form
Copyrights and abuse reports form
Time is now: 20th September 2020 - 01:36:27