Welcome Guest ( Log In | Register )

> 1914 - Für Kaiser, Volk Und Vaterland! [ep] (2016), Blackened Death/Doom Metal
post Sep 1 2017, 13:51:33
Post #1

Group: Подсевший
Posts: 30
Releases: 20
From: Russia
On Forums: 2 years 7 months
Thanks: 229 time(s)
Russian Federation


(IMG:https://metalarea.org/images/audiocovers/2017_Sep/acov_tid293915_thumb.jpg)

*Artist: 1914
*Album: Für Kaiser, Volk Und Vaterland! [ep]
*Year: 2016
*Genre: Blackened Death/Doom Metal
*Country: Ukraine (IMG:https://metalarea.org/forum/style_images/flags/Ukraine.png)
*Format: mp3@CBR320kbps
*Size: 79MB

Tracklist:
1. Für Kaiser, Volk und Vaterland (Intro)
2. Something in the Way (Nirvana cover, Schlacht an der Somme version)
3. Zeppelin Raids Western Front Rmx by ✞ λ₴MѺÐ∆I ✞
4. Caught in the Crossfire (Trench Demo 2014)
5. Frozen in Trenches (Trench Demo 2014)
6. Zeppelin Raids (Trench Demo 2014)
7. Preparing for the Next War (Outro)
******************************
Total playing time: 34:38



Technical info
(IMG:https://metalarea.org/images/spectrogram/2017_Sep/38c4b82ed323ff57c2360767da9bd534.png)
Input File: 07 Preparing for the Next War (outro).mp3
Channels : 2
Sample Rate : 44100
Precision : 16-bit
Duration : 00:03:21.37 = 8880549 samples = 15103 CDDA sectors
File Size : 8.13M
Bit Rate : 323k
Sample Encoding: MPEG audio (layer I, II or III)
Comments :
Title=Preparing for the Next War (outro)
Artist=1914
Album=FГјr Kaiser, Volk und Vaterland!
Tracknumber=7
Year=2016
Genre=138



Register


Go to the top of the page
  Insert nick Quick quote
+Quote Post
 
Start new topic
Replies (1 - 4)
post Sep 1 2017, 14:40:20
Post #2

За Русь в метро взорвусь
**************
Group: Металариец
Posts: 2,659
Releases: 2
From: Yaroslavl
On Forums: 3 years 1 week
Thanks: 1588 time(s)
Northern Mariana Islands


О, эти ребята очень крутые, предыдущий альбом зашел на ура!
Срочно качаю!


Thanks:
Go to the top of the page
  Insert nick Quick quote
+Quote Post
post Sep 1 2017, 15:00:19
Post #3

Правь статус, ####!111
**************
Group: Металариец
Posts: 2,285
Releases: 1009
From: Гиперборе́я
On Forums: 8 years 10 months
Thanks: 21579 time(s)
Russian Federation


ЦИТАТА(Faust_Vulkan_16 @ 1st September 2017 - 14:40:20) *
О, эти ребята очень крутые

нытики те еще
Go to the top of the page
  Insert nick Quick quote
+Quote Post
post Sep 1 2017, 15:15:51
Post #4

Шесть Литров
******
Group: Металариец
Posts: 509
Releases: 4
From: Москва
On Forums: 10 years 8 months
Thanks: 695 time(s)
Russian Federation


Сомнительный релиз. Пара невнятных ремиксов и демки старых песен, а всего то один альбом. Понимаю, если бы они уже грандами были, с тремя/четырьмя альбомами, как минимум, а так...


Thanks:
Go to the top of the page
  Insert nick Quick quote
+Quote Post
post Sep 1 2017, 20:26:37
Post #5

ME[ta]LLOMAN
**************
Group: Металариец
Posts: 4,918
Releases: 3
From: Avdeyevka
On Forums: 13 years 5 months
Thanks: 1862 time(s)
Honduras


ЦИТАТА(Faust_Vulkan_16 @ Sep 1 2017, 13:40:20) *
О, эти ребята очень крутые, предыдущий альбом зашел на ура!
Срочно качаю!

хлоп'ята (IMG:style_emoticons/default/genius.gif)


Thanks:
Go to the top of the page
  Insert nick Quick quote
+Quote Post

Reply to this topicStart new topic
2 User(s) are reading this topic (2 Guests and 0 Anonymous Users)
0 Members:

 



- Lo-Fi Version Support form
Copyrights and abuse reports form
Time is now: 21st September 2019 - 16:03:41