Welcome Guest ( Log In | Register )

> Rosetta - Utopioid (2017), Post-Metal/Sludge (D)
post Sep 1 2017, 14:51:50
Post #1

Аннигилятор пивА
Group Icon
Group: V.I.P
Posts: 48,804
Releases: 14927
From: Koenigsberg - TILZIT
On Forums: 12 years 3 months
Thanks: 327000 time(s)
Russian Federation


(IMG:https://metalarea.org/images/audiocovers/2017_Sep/acov_tid293917_thumb.jpg)

*Artist: Rosetta
*Album: Utopioid
*Year: 2017
*Genre: Post-Metal/Sludge
*Country: United States (IMG:https://metalarea.org/forum/style_images/flags/United%20States.png)
*Format: mp3@CBR320kbps
*Size: 146MB

Tracklist:
1. Amnion 04:11
2. Intrapartum 07:50
3. Neophyte Visionary 06:33
4. King Ivory Tower 08:12
5. 54543 04:10
6. Détente 07:20
7. Hypnagogic 09:06
8. Qohelet 07:05
9. Intramortem 07:53
******************************
Total playing time: 1:02:20




Extended info
Mike Armine - Vocals, Electronics
Dave Grossman - Bass, Vocals
Eric Jernigan - Guitars, Vocals, Keyboards
Bruce McMurtrie Jr - Drums, Percussion, Vocals
Matt Weed - Guitars, Vocals, Keyboards


Technical info
(IMG:https://metalarea.org/images/spectrogram/2017_Sep/6395ecdf8fa7ef2b8d18b8a34257164f.png)
Input File: 02 Intrapartum.mp3
Channels : 2
Sample Rate : 44100
Precision : 16-bit
Duration : 00:07:50.49 = 20748433 samples = 35286.5 CDDA sectors
File Size : 19.0M
Bit Rate : 322k
Sample Encoding: MPEG audio (layer I, II or III)
Comments :
Title=Intrapartum
Artist=Rosetta
Album=Utopioid
Tracknumber=2
Year=2017
Genre=Post Metal



Register


Go to the top of the page
  Insert nick Quick quote
+Quote Post
 
Start new topic
Replies (1 - 3)
post Sep 1 2017, 19:24:29
Post #2

Шесть Литров
******
Group: Металариец
Posts: 684
Releases: 0
From: Харьков
On Forums: 8 years 11 months
Thanks: 215 time(s)
Ukraine


Послушаю по привычке.
Go to the top of the page
  Insert nick Quick quote
+Quote Post
post Sep 2 2017, 08:52:11
Post #3

Dark Ambient Shoujo
**********
Group: Металариец
Posts: 1,006
Releases: 1
On Forums: 9 years 8 months
Thanks: 501 time(s)
Russian Federation


Не буду слушать по привычке.


Thanks:
(1) Ghostb,
Go to the top of the page
  Insert nick Quick quote
+Quote Post
post Sep 20 2017, 12:51:45
Post #4

Шесть Литров
******
Group: Металариец
Posts: 657
Releases: 1
From: Россия, Санкт-Петербург
On Forums: 10 years 4 months
Thanks: 79 time(s)
Russian Federation


ЦИТАТА(Dreamtale @ 2nd September 2017 - 10:52:11) *
Не буду слушать по привычке.

Это ты зря. Альбом получился лучше предыдущего. Вообще хороший
Go to the top of the page
  Insert nick Quick quote
+Quote Post

Reply to this topicStart new topic
1 User(s) are reading this topic (1 Guests and 0 Anonymous Users)
0 Members:

 



- Lo-Fi Version Support form
Copyrights and abuse reports form
Time is now: 20th September 2018 - 13:16:10