Welcome Guest ( Log In | Register )

> И неформату есть предел.

Рэп/хип-хоп/шансон/поп удаляются. Для них есть свои порталы.

 
Reply to this topicStart new topic
> Irdorath Folk Band - Wild (2017), Folk
post Sep 1 2017, 22:54:50
Post #1

Пять Литров
*****
Group: Металариец
Posts: 425
Releases: 23
On Forums: 4 years 8 months
Thanks: 792 time(s)
Unknown


(IMG:http://metalarea.org/images/audiocovers/2017_Sep/acov_tid293941.jpg)

*Artist: Irdorath Folk Band
*Album: Wild
*Year: 2017
*Genre: Folk
*Country: Belarus (IMG:http://metalarea.org/forum/style_images/flags/Belarus.png)
*Format: mp3@CBR320kbps
*Size: 85MB

Tracklist:
01. Wild (Intro) 01.40
02. Varazheya 03.24
03. Zhahi-Zhahi 03.06
04 Black Flags 03.54
05. Storm 04.02
06. Kupala Na Ivana 03.46
07. My Hero 03.06
08. Hto Ja? 03.34
09. Drachen 03.30
10. Time To Fight 04.14
11. Adde Duas [bonustrack] 02.58
******************************
Total playing time: 37:14

Technical info
(IMG:http://metalarea.org/images/spectrogram/2017_Sep/e42da8a4777f0a637ee83cc6c0317af6.png)
Input File: 01 - Irdorath - Wild (Intro).mp3
Channels : 2
Sample Rate : 44100
Precision : 16-bit
Duration : 00:01:40.08 = 4413704 samples = 7506.3 CDDA sectors
File Size : 4.00M
Bit Rate : 320k
Sample Encoding: MPEG audio (layer I, II or III)
Comments :
Title=Wild (Intro)
Artist=Irdorath
Album=Wild
Tracknumber=1
Year=2017
Genre=Folk



Register


Thanks:
(2) DMIYUR, gwar,
Go to the top of the page
  Insert nick Quick quote
+Quote Post

Reply to this topicStart new topic
1 User(s) are reading this topic (1 Guests and 0 Anonymous Users)
0 Members:

 



- Lo-Fi Version Support form
Copyrights and abuse reports form
Time is now: 18th June 2018 - 06:36:55